70
PUNTOS
Calificar
CALIFICA
Calificar
Califica y/o escribe un comentario sobre la película.
Comentarios en el foroFORO

Insyriated (2017)

Oum Yazan, madre de tres hijos, atrapada dentro de su casa en una ciudad sitiada en Oriente Medio, ha convertido su apartamento en un puerto seguro para su familia y vecinos, tratando de protegerlos de la guerra. Cuando las bombas amenazan con destruir el edificio, los francotiradores convierten los patios en zonas mortales, y los ladrones entran a reclamar sus terribles recompensas, mantener el equilibrio de la rutina dentro de las paredes se convierte en una cuestión de vida o muerte.
Director Philippe Van Leeuw
Actores Hiam Abbass, Diamand Bou Abboud, Juliette Navis, Mohsen Abbas
Duración 85 min
Streaming (Servicio externo)
Grupo: EA
Versión: BDRip x264 720p
Tamaño: 4.3 GB
General
Unique ID : 228109167429026355879284628980713052066 (0xAB9C3A44EA972B8BB48ED851226AD7A2)
Complete name : Insyriated.2017.720p.BluRay.DD5.1.x264-EA.mkv
Format : Matroska
Format version : Version 4 / Version 2
File size : 4.34 GiB
Duration : 1 h 26 min
Overall bit rate : 7 184 kb/s
Movie name : Philippe Van Leeuw - Insyriated ('In Syria') (2017)
Encoded date : UTC 2017-12-01 09:18:46
Writing application : mkvmerge v18.0.0 ('Apricity') 64-bit
Writing library : libebml v1.3.5 + libmatroska v1.4.8

Video
ID : 1
Format : AVC
Format/Info : Advanced Video Codec
Format profile : [email protected]
Format settings : CABAC / 9 Ref Frames
Format settings, CABAC : Yes
Format settings, RefFrames : 9 frames
Codec ID : V_MPEG4/ISO/AVC
Duration : 1 h 26 min
Bit rate : 6 540 kb/s
Width : 1 276 pixels
Height : 720 pixels
Display aspect ratio : 16:9
Frame rate mode : Constant
Frame rate : 24.000 FPS
Color space : YUV
Chroma subsampling : 4:2:0
Bit depth : 8 bits
Scan type : Progressive
Bits/(Pixel*Frame) : 0.297
Stream size : 3.95 GiB (91%)
Title : -EA
Writing library : x264 core 152 r2851+58 429492e t_mod_Custom [[email protected] X86_64]
Encoding settings : cabac=1 / ref=9 / deblock=1:-3:-3 / analyse=0x3:0x113 / me=umh / subme=10 / psy=1 / fade_compensate=0.00 / psy_rd=1.03:0.00 / mixed_ref=1 / me_range=32 / chroma_me=1 / trellis=2 / 8x8dct=1 / cqm=0 / deadzone=21,11 / fast_pskip=0 / chroma_qp_offset=-2 / threads=22 / lookahead_threads=3 / sliced_threads=0 / nr=0 / decimate=0 / interlaced=0 / bluray_compat=0 / constrained_intra=0 / fgo=0 / bframes=7 / b_pyramid=2 / b_adapt=2 / b_bias=0 / direct=3 / weightb=1 / open_gop=0 / weightp=2 / keyint=240 / keyint_min=24 / scenecut=40 / intra_refresh=0 / rc_lookahead=60 / rc=crf / mbtree=0 / crf=16.9000 / qcomp=0.75 / qpmin=0:0:0 / qpmax=69:69:69 / qpstep=4 / vbv_maxrate=62500 / vbv_bufsize=78125 / crf_max=0.0 / nal_hrd=none / filler=0 / ip_ratio=1.30 / pb_ratio=1.20 / aq=3:0.85 / aq-sensitivity=10.00 / aq-factor=1.00:1.00:1.00 / aq2=1:0.70 / aq2-sensitivity=15.00 / aq2-factor=1.00:1.00:1.00 / aq3=1:[0.70:0.70]:[0.70:0.70]:[0.70:0.70]:[0.70:0.70] / aq3-sensitivity=10.00 / aq3-factor=[1.00:1.00]:[1.00:1.00]:[1.00:1.00] / aq3-boundary=192:64:24
Language : Arabic
Default : Yes
Forced : No
Color range : Limited
Color primaries : BT.709
Transfer characteristics : BT.709
Matrix coefficients : BT.709

Audio
ID : 2
Format : AC-3
Format/Info : Audio Coding 3
Codec ID : A_AC3
Duration : 1 h 26 min
Bit rate mode : Constant
Bit rate : 640 kb/s
Channel(s) : 6 channels
Channel positions : Front: L C R, Side: L R, LFE
Sampling rate : 48.0 kHz
Frame rate : 31.250 FPS (1536 SPF)
Bit depth : 16 bits
Compression mode : Lossy
Stream size : 394 MiB (9%)
Language : Arabic
Service kind : Complete Main
Default : Yes
Forced : No

Text
ID : 3
Format : PGS
Muxing mode : zlib
Codec ID : S_HDMV/PGS
Codec ID/Info : Picture based subtitle format used on BDs/HD-DVDs
Duration : 1 h 19 min
Bit rate : 9 117 b/s
Count of elements : 1016
Stream size : 5.18 MiB (0%)
Title : sup
Language : German
Default : No
Forced : No

Menu
00:00:00.000 : en:00:00:00.000
00:11:53.875 : en:00:11:53.875
00:15:19.625 : en:00:15:19.625
00:18:28.667 : en:00:18:28.667
00:23:42.667 : en:00:23:42.667
00:29:00.000 : en:00:29:00.000
00:43:33.292 : en:00:43:33.292
01:00:34.958 : en:01:00:34.958
01:08:56.917 : en:01:08:56.917
01:12:21.208 : en:01:12:21.208
01:16:33.333 : en:01:16:33.333
01:22:19.000 : en:01:22:19.000

Subtitulos

Trailer