67
PUNTOS
Calificar
CALIFICA
Calificar
Califica y/o escribe un comentario sobre la película.
Comentarios en el foroFORO

Tiere (2017)

Una colisión con una oveja en una carretera rural de Suiza inicia una serie de experiencias extrañas e inquietantes para la pareja austriaca formada por Anna y Nick, que deja a ambos incapaces de saber exactamente dónde están: en el mundo real, en su propia imaginación o en la imaginación de un tercero.
Director Greg Zglinski
Actores Birgit Minichmayr, Philipp Hochmair, Mona Petri, Mehdi Nebbou
Duración 95 min
Streaming (Servicio externo)
Grupo: RIYE
Versión: WebRip x264 1080p
Tamaño: 2.1 GB
General
Unique ID : 93648387487651236360654889782742557703 (0x467405FB9DAEA4622E35B93AC6872407)
Complete name : Tiere.2017.Greg.Zglinski.1080p.WEBRip.AAC.x264.RIYE.mkv
Format : Matroska
Format version : Version 4 / Version 2
File size : 2.03 GiB
Duration : 1 h 34 min
Overall bit rate : 3 088 kb/s
Encoded date : UTC 2018-05-29 12:36:29
Writing application : mkvmerge v23.0.0 ('The Bride Said No') 64-bit
Writing library : libebml v1.3.6 + libmatroska v1.4.9

Video
ID : 1
Format : AVC
Format/Info : Advanced Video Codec
Format profile : [email protected]
Format settings : CABAC / 4 Ref Frames
Format settings, CABAC : Yes
Format settings, ReFrames : 4 frames
Codec ID : V_MPEG4/ISO/AVC
Duration : 1 h 34 min
Bit rate : 2 785 kb/s
Width : 1 920 pixels
Height : 1 080 pixels
Display aspect ratio : 16:9
Frame rate mode : Constant
Frame rate : 24.000 FPS
Color space : YUV
Chroma subsampling : 4:2:0
Bit depth : 8 bits
Scan type : Progressive
Bits/(Pixel*Frame) : 0.056
Stream size : 1.83 GiB (90%)
Writing library : Zencoder Video Encoding System
Default : Yes
Forced : No
Color range : Limited
Color primaries : BT.709
Transfer characteristics : BT.709
Matrix coefficients : BT.709

Audio
ID : 2
Format : AAC
Format/Info : Advanced Audio Codec
Format profile : LC
Codec ID : A_AAC-2
Duration : 1 h 34 min
Bit rate : 300 kb/s
Channel(s) : 2 channels
Channel positions : Front: L R
Sampling rate : 48.0 kHz
Frame rate : 46.875 FPS (1024 SPF)
Compression mode : Lossy
Delay relative to video : -109 ms
Stream size : 202 MiB (10%)
Default : Yes
Forced : No

Subtitulos

Trailer