64
PUNTOS
Calificar
CALIFICA
Calificar
Califica y/o escribe un comentario sobre la película.
Comentarios en el foroFORO

Dirty God (2019)

Jade es una joven madre en la flor de la vida cuando un ataque con ácido le deja herida de gravedad. Mientras su cara es reconstruida, su belleza queda escondida tras las cicatrices. Mientras va perdiendo sus relaciones, y se adentra en una vorágine autodestructiva, Jade deberá actuar para poder retomar su vida.
Director Sacha Polak
Actores Vicky Knight, Katherine Kelly, Eliza Brady-Girard, Rebecca Stone
Duración 104 min
Streaming (Servicio externo)
Grupo: CADAVER
Versión: DVDRip x264
Tamaño: 461 MB
Dirty.God.2019.DVDRip.x264-CADAVER
Duration.......: 1 h 39 min
Video .........: x264 @ CRF 19 (517 Kbps)
Frame Rate.....: 25 fps
Resolution.....: 720x300
Audio..........: English 2ch AAC @ 126 Kbps
Subtitles......: None
Size...........: 460.6 MB
IMDB...........: https://www.imdb.com/title/tt7334342

Subtitulos

Grupo: FGT
Versión: WEB-DL H264 1080p
Tamaño: 3.4 GB
Video
ID : 1
Format : AVC
Format/Info : Advanced Video Codec
Format profile : [email protected]
Format settings : CABAC / 5 Ref Frames
Format settings, CABAC : Yes
Format settings, Reference frames : 5 frames
Format settings, GOP : N=1
Codec ID : V_MPEG4/ISO/AVC
Duration : 1 h 39 min
Bit rate : 4 542 kb/s
Width : 1 916 pixels
Height : 852 pixels
Display aspect ratio : 2.25:1
Frame rate mode : Constant
Frame rate : 25.000 FPS
Color space : YUV
Chroma subsampling : 4:2:0
Bit depth : 8 bits
Scan type : Progressive
Bits/(Pixel*Frame) : 0.111
Stream size : 3.17 GiB (92%)
Title : Dirty.God.2019.1080p.WEB-DL.DD5.1.H264-FGT
Language : English
Default : Yes
Forced : No
Color range : Limited
Color primaries : BT.709
Transfer characteristics : BT.709
Matrix coefficients : BT.709

Audio
ID : 2
Format : AC-3
Format/Info : Audio Coding 3
Commercial name : Dolby Digital
Codec ID : A_AC3
Duration : 1 h 39 min
Bit rate mode : Constant
Bit rate : 384 kb/s
Channel(s) : 6 channels
Channel layout : L R C LFE Ls Rs
Sampling rate : 48.0 kHz
Frame rate : 31.250 FPS (1536 SPF)
Compression mode : Lossy
Delay relative to video : -40 ms
Stream size : 274 MiB (8%)
Title : Dirty.God.2019.1080p.WEB-DL.DD5.1.H264-FGT
Language : English
Service kind : Complete Main
Default : Yes
Forced : No

Menu
00:00:00.000 : en:1
00:15:34.840 : en:2
00:31:38.560 : en:3
00:47:59.720 : en:4
01:03:21.640 : en:5
01:20:19.280 : en:6
01:35:42.520 : en:7
Trailer