72
PUNTOS
Calificar
CALIFICA
Calificar
Califica y/o escribe un comentario sobre la película.
Comentarios en el foroFORO

The Reports on Sarah and Saleem (2018)

Drama sobre la relación adúltera de Sarah, una mujer israelí que dirige un café en el oeste de Jerusalén, y Saleem, palestino de Jerusalén Este que trabaja como repartidor. Sus cónyuges se vuelven conscientes de los engaños de sus parejas después de que Saleem y Sarah se peleen en público, lo que sitúa a Saleem en el punto de mira de las fuerzas de seguridad israelíes.
Director Muayad Alayan
Actores Adeeb Safadi, Sivane Kretchner, Ishai Golan, Maisa Abd Elhadi
Duración 127 min
Streaming (Servicio externo)
Grupo: BulIT
Versión: WebRip x264
Tamaño: 1.6 GB
The.Reports.on.Sarah.and.Saleem.(2018).WEBRip.x264.AAC.2.0-BulIT.mp4
Format                                   : MPEG-4
Format profile                           : Base Media
Codec ID                                 : isom (isom/iso2/mp41)
File size                                : 1.56 GiB
Duration                                 : 2 h 6 min
Overall bit rate mode                    : Variable
Overall bit rate                         : 1 761 kb/s
Writing application                      : Lavf58.20.100

Video
ID                                       : 1
Format                                   : MPEG-4 Visual
Format profile                           : [email protected]
Format settings, BVOP                    : No
Format settings, QPel                    : No
Format settings, GMC                     : No warppoints
Format settings, Matrix                  : Default (H.263)
Codec ID                                 : mp4v-20
Duration                                 : 2 h 6 min
Bit rate mode                            : Variable
Bit rate                                 : 1 643 kb/s
Maximum bit rate                         : 9 000 kb/s
Width                                    : 1 024 pixels
Height                                   : 576 pixels
Display aspect ratio                     : 16:9
Original display aspect ratio            : 16:9
Frame rate mode                          : Variable
Frame rate                               : 25.000 FPS
Minimum frame rate                       : 10.989 FPS
Maximum frame rate                       : 25.000 FPS
Color space                              : YUV
Chroma subsampling                       : 4:2:0
Bit depth                                : 8 bits
Scan type                                : Progressive
Compression mode                         : Lossy
Bits/(Pixel*Frame)                       : 0.111
Stream size                              : 1.45 GiB (93%)
Writing library                          : Lavc57.89.100

Audio
ID                                       : 2
Format                                   : AAC LC
Format/Info                              : Advanced Audio Codec Low Complexity
Codec ID                                 : mp4a-40-2
Duration                                 : 2 h 6 min
Bit rate mode                            : Variable
Bit rate                                 : 112 kb/s
Maximum bit rate                         : 128 kb/s
Channel(s)                               : 2 channels
Channel layout                           : L R
Sampling rate                            : 44.1 kHz
Frame rate                               : 43.066 FPS (1024 SPF)
Compression mode                         : Lossy
Stream size                              : 102 MiB (6%)
Default                                  : Yes
Alternate group                          : 1

Subtitulos

Trailer