67
PUNTOS
Calificar
CALIFICA
Calificar
Califica y/o escribe un comentario sobre la película.
Comentarios en el foroFORO

Lemonade (2018)

Mara, una enfermera de Rumanía, se casa con un hombre norteamericano que tuvo de paciente, y espera obtener la tarjeta de residente. El proceso se complica y Mara descubre que ese sueño que había imaginado está muy lejos de hacerse realidad.
Director Ioana Uricaru
Actores Mãlina Manovici, Dylan Smith, Steve Bacic, Milan Hurduc
Duración 88 min
Streaming (Servicio externo)
Grupo: BulIT
Versión: WebRip x264 1080p
Tamaño: 1.8 GB
General
Complete name               : D:\Movies\Lemonade.(2018).1080p.WEBRip.x264.AAC-BulIT\Lemonade.(2018).1080p.WEBRip.x264.AAC-BulIT.mp4
Format                      : MPEG-4
Format profile              : Base Media
Codec ID                    : isom (isom/iso2/mp41)
File size                   : 1.70 GiB
Duration                    : 1 h 24 min
Overall bit rate mode       : Variable
Overall bit rate            : 2 880 kb/s
Writing application         : Lavf58.20.100

Video
ID                          : 1
Format                      : MPEG-4 Visual
Format profile              : [email protected]
Format settings, BVOP       : No
Format settings, QPel       : No
Format settings, GMC        : No warppoints
Format settings, Matrix     : Default (H.263)
Codec ID                    : mp4v-20
Duration                    : 1 h 24 min
Bit rate mode               : Variable
Bit rate                    : 2 762 kb/s
Maximum bit rate            : 9 000 kb/s
Width                       : 1 920 pixels
Height                      : 1 080 pixels
Display aspect ratio        : 16:9
Frame rate mode             : Variable
Frame rate                  : 25.000 FPS
Minimum frame rate          : 10.200 FPS
Maximum frame rate          : 25.000 FPS
Color space                 : YUV
Chroma subsampling          : 4:2:0
Bit depth                   : 8 bits
Scan type                   : Progressive
Compression mode            : Lossy
Bits/(Pixel*Frame)          : 0.053
Stream size                 : 1.63 GiB (96%)
Writing library             : Lavc57.89.100

Audio
ID                          : 2
Format                      : AAC LC
Format/Info                 : Advanced Audio Codec Low Complexity
Codec ID                    : mp4a-40-2
Duration                    : 1 h 24 min
Bit rate mode               : Variable
Bit rate                    : 112 kb/s
Maximum bit rate            : 128 kb/s
Channel(s)                  : 2 channels
Channel layout              : L R
Sampling rate               : 44.1 kHz
Frame rate                  : 43.066 FPS (1024 SPF)
Compression mode            : Lossy
Stream size                 : 67.8 MiB (4%)
Default                     : Yes
Alternate group             : 1
Trailer