67
PUNTOS
Calificar
CALIFICA
Calificar
Califica y/o escribe un comentario sobre la película.
Comentarios en el foroFORO

Last Child (2017)

Cuando su hijo se ahoga al salvar la vida de un amigo, la pareja se ofrece a acoger al niño. ¿Qué pueden hacer con el niño que sobrevivió a su propio hijo? El padre intenta enseñarle a trabajar y lo cuida como a una familia. La madre le es distante pero poco a poco abre su corazón.
Director Dong-seok Shin
Actores Choi Moo-Seong, Yoo-Bin Sung, Kim Yeo-Jin
Duración 123 min
Streaming (Servicio externo)
Grupo: iMBC
Versión: HDRip H264 720p AAC
Tamaño: 3.1 GB
General
Unique ID : 49173312072344525815305581797295486498 (0x24FE6F7795EF22B55C6A07839B1B7622)
Complete name : Last.Child.2017.720p.HDRip.H264.AAC-iMBC.mkv
Format : Matroska
Format version : Version 4 / Version 2
File size : 3.15 GiB
Duration : 2h 3mn
Overall bit rate : 3 642 Kbps
Encoded date : UTC 2020-04-16 18:59:45
Writing application : mkvmerge v23.0.0 ('The Bride Said No') 64-bit
Writing library : libebml v1.3.6 + libmatroska v1.4.9

Video
ID : 1
Format : AVC
Format/Info : Advanced Video Codec
Format profile : [email protected]
Format settings, CABAC : Yes
Format settings, ReFrames : 2 frames
Codec ID : V_MPEG4/ISO/AVC
Duration : 2h 3mn
Bit rate mode : Constant
Bit rate : 3 500 Kbps
Width : 1 280 pixels
Height : 720 pixels
Display aspect ratio : 16:9
Frame rate mode : Constant
Frame rate : 23.976 (24000/1001) fps
Color space : YUV
Chroma subsampling : 4:2:0
Bit depth : 8 bits
Scan type : Progressive
Bits/(Pixel*Frame) : 0.158
Stream size : 2.99 GiB (95%)
Default : Yes
Forced : No

Audio
ID : 2
Format : AAC
Format/Info : Advanced Audio Codec
Format profile : LC
Codec ID : A_AAC
Duration : 2h 3mn
Bit rate : 192 Kbps
Channel(s) : 2 channels
Channel positions : Front: L R
Sampling rate : 48.0 KHz
Frame rate : 46.875 fps (1024 spf)
Compression mode : Lossy
Delay relative to video : -33ms
Stream size : 168 MiB (5%)
Language : Korean
Default : Yes
Forced : No

Subtitulos

Trailer