57
PUNTOS
Calificar
CALIFICA
Calificar
Califica y/o escribe un comentario sobre la película.
Comentarios en el foroFORO

Plagi Breslau (2018)

Todos los días, a las seis de la tarde, un asesino en serie está matando a una persona. La oficial de policía Helena Rus cree que los asesinatos sólo los lleva a cabo un hombre y decide averiguar su identidad revisando la historia de la ciudad en el siglo XVIII.
Director Patryk Vega
Actores Malgorzata Kozuchowska, Daria Widawska, Katarzyna Bujakiewicz, Andrzej Grabowski
Duración 93 min
Streaming (Servicio externo)
Grupo: Ralf
Versión: WEB-DL x264 1080p AC3
Tamaño: 3.84 GB
General
Unique ID : 220721168403281026975929808249242383239 (0xA60D59CB542DFA2DA3BDDF5B386DF387)
Complete name : Plagi.Breslau.2018.POLiSH.1080p.SM.WEB.DD2.0.x264-Ralf/Plagi.Breslau.2018.POLiSH.1080p.SM.WEB.DD2.0.x264-Ralf.mkv
Format : Matroska
Format version : Version 4 / Version 2
File size : 3.84 GiB
Duration : 1 h 33 min
Overall bit rate : 5 903 kb/s
Movie name : Plagi Breslau - Showmax
Encoded date : UTC 2018-12-19 22:31:12
Writing application : mkvmerge v10.0.0 ('To Drown In You') 32bit
Writing library : libebml v1.3.4 + libmatroska v1.4.5 / Lavf57.57.100
BUFFER_AVERAGE : 218136
DEVICECONFORMANCETEMPLATE : @
ISVBR : 1
VBR_PEAK : 27631850
WMFSDKNEEDED : 0.0.0.0000
WMFSDKVERSION : 12.0.17134.471

Video
ID : 1
Format : AVC
Format/Info : Advanced Video Codec
Format profile : [email protected]
Format settings, CABAC : Yes
Format settings, ReFrames : 4 frames
Codec ID : V_MPEG4/ISO/AVC
Duration : 1 h 33 min
Bit rate : 5 620 kb/s
Width : 1 920 pixels
Height : 816 pixels
Display aspect ratio : 2.35:1
Frame rate mode : Constant
Frame rate : 25.000 FPS
Color space : YUV
Chroma subsampling : 4:2:0
Bit depth : 8 bits
Scan type : Progressive
Bits/(Pixel*Frame) : 0.143
Stream size : 3.59 GiB (93%)
Writing library : x264 core 148 r2721
Encoding settings : cabac=1 / ref=4 / deblock=1:0:0 / analyse=0x3:0x113 / me=hex / subme=7 / psy=1 / psy_rd=1.00:0.00 / mixed_ref=0 / me_range=16 / chroma_me=1 / trellis=0 / 8x8dct=1 / cqm=0 / deadzone=21,11 / fast_pskip=1 / chroma_qp_offset=-2 / threads=12 / lookahead_threads=2 / sliced_threads=0 / nr=0 / decimate=1 / interlaced=0 / bluray_compat=0 / constrained_intra=0 / bframes=8 / b_pyramid=0 / b_adapt=1 / b_bias=0 / direct=0 / weightb=1 / open_gop=0 / weightp=2 / keyint=250 / keyint_min=25 / scenecut=40 / intra_refresh=0 / rc_lookahead=40 / rc=abr / mbtree=1 / bitrate=5620 / ratetol=1.0 / qcomp=0.60 / qpmin=8 / qpmax=69 / qpstep=4 / vbv_maxrate=10000 / vbv_bufsize=10000 / nal_hrd=none / filler=0 / ip_ratio=1.40 / aq=1:1.00
Language : Polish
Default : Yes
Forced : No
Color range : Limited
Color primaries : BT.709
Transfer characteristics : BT.709
Matrix coefficients : BT.709

Audio
ID : 2
Format : AC-3
Format/Info : Audio Coding 3
Mode extension : CM (complete main)
Format settings, Endianness : Big
Codec ID : A_AC3
Duration : 1 h 33 min
Bit rate mode : Constant
Bit rate : 384 kb/s
Channel(s) : 2 channels
Channel positions : Front: L R
Sampling rate : 48.0 kHz
Frame rate : 31.250 FPS (1536 spf)
Bit depth : 16 bits
Compression mode : Lossy
Stream size : 256 MiB (7%)
Writing library : Lavc57.65.100 ac3
Language : Polish
Default : Yes
Forced : No

Subtitulos

Trailer