62
PUNTOS
Calificar
CALIFICA
Calificar
Califica y/o escribe un comentario sobre la película.
Comentarios en el foroFORO

Chambre 212 (2019)

Tras 20 años de matrimonio, Maria decide dejarlo todo atrás y empezar una nueva vida. El primer paso es hospedarse en la habitación 212 de un hotel próximo a la casa en la que vivía junto a su familia. Con el paso del tiempo, comienza a preguntarse si ha tomado la decisión correcta.
Director Christophe Honoré
Actores Chiara Mastroianni, Benjamin Biolay, Vincent Lacoste, Kolia Abiteboul
Duración 86 min
Streaming (Servicio externo)
Grupo: PREUMS
Versión: WEB x264 1080p
Tamaño: 3.4 GB
General
Unique ID : 6631354248482639643569919882828824316 (0x4FD2701D843FE0AD924999DA9FDBEFC)
Complete name : Chambre.212.2019.FRENCH.1080p.WEB.x264-PREUMS.mkv
Format : Matroska
Format version : Version 4
File size : 3.41 GiB
Duration : 1 h 27 min
Overall bit rate : 5 615 kb/s
Movie name : Chambre 212 - PREUMS
Encoded date : UTC 2020-02-18 22:10:04
Writing application : mkvmerge v36.0.0 ('Is That Jazz?') 64-bit
Writing library : libebml v1.3.9 + libmatroska v1.5.2

Video
ID : 1
Format : AVC
Format/Info : Advanced Video Codec
Format profile : [email protected]
Format settings : CABAC / 4 Ref Frames
Format settings, CABAC : Yes
Format settings, Reference frames : 4 frames
Codec ID : V_MPEG4/ISO/AVC
Duration : 1 h 27 min
Bit rate : 5 229 kb/s
Width : 1 912 pixels
Height : 1 032 pixels
Display aspect ratio : 1.85:1
Frame rate mode : Constant
Frame rate : 24.000 FPS
Color space : YUV
Chroma subsampling : 4:2:0
Bit depth : 8 bits
Scan type : Progressive
Bits/(Pixel*Frame) : 0.110
Stream size : 3.18 GiB (93%)
Title : PREUMS
Language : French
Default : Yes
Forced : No
Color range : Limited
Color primaries : BT.709
Transfer characteristics : BT.709
Matrix coefficients : BT.709

Audio
ID : 2
Format : AC-3
Format/Info : Audio Coding 3
Commercial name : Dolby Digital
Codec ID : A_AC3
Duration : 1 h 27 min
Bit rate mode : Constant
Bit rate : 384 kb/s
Channel(s) : 6 channels
Channel layout : L R C LFE Ls Rs
Sampling rate : 48.0 kHz
Frame rate : 31.250 FPS (1536 SPF)
Bit depth : 16 bits
Compression mode : Lossy
Stream size : 239 MiB (7%)
Title : French AC3
Language : French
Service kind : Complete Main
Default : Yes
Forced : No

Menu
00:00:00.000 : en:Chapitre 01
00:10:36.000 : en:Chapitre 02
00:20:51.000 : en:Chapitre 03
00:32:32.000 : en:Chapitre 04
00:41:08.000 : en:Chapitre 05
00:49:19.000 : en:Chapitre 06
00:58:51.000 : en:Chapitre 07
01:05:15.000 : en:Chapitre 08
01:12:02.000 : en:Chapitre 09
01:21:47.000 : en:Chapitre 10

Subtitulos

Grupo: PREUMS
Versión: WEB x264 720p
Tamaño: 1.4 GB
General
Format : Matroska
Format version : Version 4
File size : 1.45 GiB
Duration : 1 h 27 min
Overall bit rate mode : Variable
Overall bit rate : 2 385 kb/s
Writing application : mkvmerge v41.0.0 ('Smarra') 64-bit
Writing library : libebml v1.3.9 + libmatroska v1.5.2

Video
ID : 1
Format : AVC
Format/Info : Advanced Video Codec
Format profile : [email protected]
Format settings : CABAC / 1 Ref Frames
Format settings, CABAC : Yes
Format settings, Reference : 1 frame
Codec ID : V_MPEG4/ISO/AVC
Duration : 1 h 27 min
Bit rate mode : Variable
Bit rate : 2 000 kb/s
Width : 1 280 pixels
Height : 688 pixels
Display aspect ratio : 1.85:1
Frame rate mode : Constant
Frame rate : 24.000 FPS
Color space : YUV
Chroma subsampling : 4:2:0
Bit depth : 8 bits
Scan type : Progressive
Bits/(Pixel*Frame) : 0.095
Stream size : 1.22 GiB (84%)
Language : French
Default : Yes
Forced : No

Audio
ID : 2
Format : AC-3
Format/Info : Audio Coding 3
Commercial name : Dolby Digital
Codec ID : A_AC3
Duration : 1 h 27 min
Bit rate mode : Constant
Bit rate : 384 kb/s
Channel(s) : 6 channels
Channel layout : L R C LFE Ls Rs
Sampling rate : 48.0 kHz
Frame rate : 31.250 FPS (1536 SPF)
Compression mode : Lossy
Stream size : 239 MiB (16%)
Language : French
Service kind : Complete Main
Default : Yes
Forced : No

Subtitulos

Trailer