65
PUNTOS
Calificar
CALIFICA
Calificar
Califica y/o escribe un comentario sobre la película.
Comentarios en el foroFORO

The Assistant (2020)

Jane (Julia Garner) es una recién graduada universitaria y aspirante a productora de cine que consigue un trabajo aparentemente ideal como asistente de un poderoso ejecutivo de la industria del entretenimiento. Su día es muy similar al de cualquier otro asistenta: preparar café, cambiar el papel en la fotocopiadora, ordenar el almuerzo, organizar viajes, recibir mensajes telefónicos, etc. Pero a medida que Jane sigue su rutina diaria, es cada vez más conscientes del abuso que colorea insidiosamente cada aspecto de su jornada laboral, una acumulación de degradaciones contra las cuales Jane decide adoptar una posición, quizás solo para descubrir la verdadera profundidad del sistema en el que ella ha entrado.
Director Kitty Green
Actores Julia Garner, Matthew Macfadyen, Makenzie Leigh, Kristine Froseth
Duración 87 min
Streaming (Servicio externo)
Grupo: REGRET
Versión: WebRip H264 1080p
Tamaño: 1.66 GB
Video
ID : 1
Format : AVC
Format/Info : Advanced Video Codec
Format profile : [email protected]
Format settings : CABAC / 4 Ref Frames
Format settings, CABAC : Yes
Format settings, Reference frames : 4 frames
Codec ID : V_MPEG4/ISO/AVC
Duration : 1 h 27 min
Bit rate : 2 465 kb/s
Width : 1 920 pixels
Height : 1 080 pixels
Display aspect ratio : 16:9
Frame rate mode : Constant
Frame rate : 23.976 (24000/1001) FPS
Color space : YUV
Chroma subsampling : 4:2:0
Bit depth : 8 bits
Scan type : Progressive
Bits/(Pixel*Frame) : 0.050
Stream size : 1.51 GiB (91%)
Default : Yes
Forced : No

Audio
ID : 2
Format : E-AC-3
Format/Info : Enhanced AC-3
Commercial name : Dolby Digital Plus
Codec ID : A_EAC3
Duration : 1 h 27 min
Bit rate mode : Constant
Bit rate : 256 kb/s
Channel(s) : 6 channels
Channel layout : L R C LFE Ls Rs
Sampling rate : 48.0 kHz
Frame rate : 31.250 FPS (1536 SPF)
Compression mode : Lossy
Stream size : 160 MiB (9%)
Title : English
Language : English
Service kind : Complete Main
Default : No
Forced : No

Subtitulos

Grupo: SURCODE
Versión: BDRip x264 720p
Tamaño: 1.5 GB
SURCODE PRESENTS....

The Assistant (2019)

VIDEO_________: 1280 x 640 (crf17 @ 1737 kbps)
VIDEO_SOURCE__: 1920 x 1080 (@ 24.5 mbps)
AUDIO_________: AC3 5.1 640kbs
SUBTITEL______: ger
IMDB__________: www.imdb.com/title/tt9000224/

Subtitulos

Grupo: SURCODE
Versión: BDRip x264 1080p
Tamaño: 5.0 GB
SURCODE PRESENTS....

The Assistant (2019)

VIDEO_________: 1920 x 960 (crf17 @ 6198 kbps)
VIDEO_SOURCE__: 1920 x 1080 (@ 24.5 mbps)
AUDIO_________: DTS-HD 5.1 1892 kbs
SUBTITEL______: ger
IMDB__________: www.imdb.com/title/tt9000224/

Subtitulos

Grupo: FGT
Versión: WEB-DL H264 1080p
Tamaño: 3.1 GB
Video
ID : 1
Format : AVC
Format/Info : Advanced Video Codec
Format profile : [email protected]
Format settings : CABAC / 4 Ref Frames
Format settings, CABAC : Yes
Format settings, Reference frames : 4 frames
Codec ID : V_MPEG4/ISO/AVC
Duration : 1 h 27 min
Bit rate : 4 625 kb/s
Width : 1 916 pixels
Height : 952 pixels
Display aspect ratio : 2.013
Frame rate mode : Constant
Frame rate : 23.976 (23976/1000) FPS
Color space : YUV
Chroma subsampling : 4:2:0
Bit depth : 8 bits
Scan type : Progressive
Bits/(Pixel*Frame) : 0.106
Stream size : 2.84 GiB (92%)
Title : The.Assistant.2019.1080p.WEB-DL.DD5.1.H264-FGT
Language : English
Default : Yes
Forced : No
Color range : Limited
Color primaries : BT.709
Transfer characteristics : BT.709
Matrix coefficients : BT.709

Audio
ID : 2
Format : AC-3
Format/Info : Audio Coding 3
Commercial name : Dolby Digital
Codec ID : A_AC3
Duration : 1 h 27 min
Bit rate mode : Constant
Bit rate : 384 kb/s
Channel(s) : 6 channels
Channel layout : L R C LFE Ls Rs
Sampling rate : 48.0 kHz
Frame rate : 31.250 FPS (1536 SPF)
Bit depth : 16 bits
Compression mode : Lossy
Stream size : 241 MiB (8%)
Title : The.Assistant.2019.1080p.WEB-DL.DD5.1.H264-FGT
Language : English
Service kind : Complete Main
Default : Yes
Forced : No

Text #1
ID : 3
Format : UTF-8
Codec ID : S_TEXT/UTF8
Codec ID/Info : UTF-8 Plain Text
Duration : 37 s 913 ms
Bit rate : 115 b/s
Count of elements : 11
Stream size : 549 Bytes (0%)
Title : FORCED
Language : English
Default : Yes
Forced : No

Text #2
ID : 4
Format : UTF-8
Codec ID : S_TEXT/UTF8
Codec ID/Info : UTF-8 Plain Text
Duration : 1 h 17 min
Bit rate : 40 b/s
Count of elements : 710
Stream size : 23.1 KiB (0%)
Language : English
Default : No
Forced : No

Menu
00:00:00.000 : en:1
00:03:35.674 : en:2
00:07:19.981 : en:3
00:11:41.784 : en:4
00:15:30.345 : en:5
00:18:52.547 : en:6
00:23:01.671 : en:7
00:26:17.575 : en:8
00:29:27.514 : en:9
00:34:42.871 : en:10
00:38:12.247 : en:11
00:40:52.781 : en:12
00:44:56.733 : en:13
00:47:22.879 : en:14
00:58:08.940 : en:15
01:02:57.561 : en:16
01:08:16.212 : en:17
01:13:09.797 : en:18
01:17:10.204 : en:19

Subtitulos

Trailer