65
PUNTOS
Calificar
CALIFICA
Calificar
Califica y/o escribe un comentario sobre la película.
Comentarios en el foroFORO

The Last Full Measure (2020)

Narra la historia del paramédico William H. Pitsenbarger, que salvó él solo a más de 60 personas en la guerra del Vietnam, y de la investigación de un miembro del Pentágono, Scott Huffman (Sebastian Stan), que trabajó contra viendo y marea superando todos los obstáculos para que se honrara al médico con la medalla al valor.
Director Todd Robinson
Actores Sebastian Stan, Alison Sudol, Asher Miles Fallica, LisaGay Hamilton
Duración 116 min
Streaming (Servicio externo)
Grupo: NTG
Versión: WEB-DL H264 1080p UNCUT
Tamaño: 7.3 GB
General
Unique ID : 173306433240596027531307639080803728130 (0x82619ADCE8A89E7E379249EE75A17B02)
Complete name : The.Last.Full.Measure.2019.Uncut.1080p.AMZN.WEB-DL.DDP5.1.H.264-NTG.mkv
Format : Matroska
Format version : Version 4
File size : 7.28 GiB
Duration : 1 h 56 min
Overall bit rate : 8 969 kb/s
Encoded date : UTC 2020-04-07 07:29:40
Writing application : mkvmerge v21.0.0 ('Tardigrades Will Inherit The Earth') 64-bit
Writing library : libebml v1.3.5 + libmatroska v1.4.8

Video
ID : 1
Format : AVC
Format/Info : Advanced Video Codec
Format profile : [email protected]
Format settings : CABAC / 4 Ref Frames
Format settings, CABAC : Yes
Format settings, Reference frames : 4 frames
Codec ID : V_MPEG4/ISO/AVC
Duration : 1 h 56 min
Bit rate mode : Constant
Bit rate : 8 326 kb/s
Nominal bit rate : 10 000 kb/s
Width : 1 920 pixels
Height : 800 pixels
Display aspect ratio : 2.40:1
Frame rate mode : Constant
Frame rate : 23.976 (24000/1001) FPS
Color space : YUV
Chroma subsampling : 4:2:0
Bit depth : 8 bits
Scan type : Progressive
Bits/(Pixel*Frame) : 0.226
Stream size : 6.76 GiB (93%)
Default : Yes
Forced : No
Color range : Limited
Color primaries : BT.709
Transfer characteristics : BT.709
Matrix coefficients : BT.709

Audio
ID : 2
Format : E-AC-3
Format/Info : Enhanced AC-3
Commercial name : Dolby Digital Plus
Codec ID : A_EAC3
Duration : 1 h 56 min
Bit rate mode : Constant
Bit rate : 640 kb/s
Channel(s) : 6 channels
Channel layout : L R C LFE Ls Rs
Sampling rate : 48.0 kHz
Frame rate : 31.250 FPS (1536 SPF)
Compression mode : Lossy
Stream size : 532 MiB (7%)
Language : English
Service kind : Complete Main
Default : Yes
Forced : No

Text #1
ID : 3
Format : UTF-8
Codec ID : S_TEXT/UTF8
Codec ID/Info : UTF-8 Plain Text
Duration : 1 h 50 min
Bit rate : 65 b/s
Count of elements : 1732
Stream size : 52.9 KiB (0%)
Language : English
Default : No
Forced : No

Text #2
ID : 4
Format : UTF-8
Codec ID : S_TEXT/UTF8
Codec ID/Info : UTF-8 Plain Text
Duration : 1 h 51 min
Bit rate : 70 b/s
Count of elements : 1858
Stream size : 58.0 KiB (0%)
Title : SDH
Language : English
Default : No
Forced : No

Menu
00:00:00.000 : en:Studio Logo
00:00:42.000 : en:Opening Credits
00:03:40.000 : en:Scene 3
00:04:58.000 : en:Scene 4
00:10:55.000 : en:Scene 5
00:14:36.000 : en:Scene 6
00:19:53.000 : en:Scene 7
00:25:10.000 : en:Scene 8
00:32:45.000 : en:Scene 9
00:37:30.000 : en:Scene 10
00:43:13.000 : en:Scene 11
00:49:16.000 : en:Scene 12
00:54:58.000 : en:Scene 13
01:00:09.000 : en:Scene 14
01:05:22.000 : en:Scene 15
01:11:20.000 : en:Scene 16
01:17:29.000 : en:Scene 17
01:23:10.000 : en:Scene 18
01:29:46.000 : en:Scene 19
01:34:04.000 : en:Scene 20
01:37:15.000 : en:Scene 21
01:41:43.000 : en:Scene 22
01:49:53.000 : en:End Credits

Subtitulos

Grupo: GETiT
Versión: BDRip x264 AAC
Tamaño: 772 MB
The.Last.Full.Measure.2019.BDRip.x264-GETiT

Genre ..............: Drama - War
Release Type .......: x264 CRF19
Video Bitrate ......: 720x300 @ 816 kbps
Audio Bitrate ......: ENG AAC LC 2.0 @ 119 kbps
Substitles .........: no

Release Date .......: 28.01.2020
Size ...............: 772 MB
Notes ..............: No News are Good NEWS!

https://www.imdb.com/title/tt0783640/
Grupo: GETiT
Versión: BDRip x264 720p DTS
Tamaño: 5.5 GB
The.Last.Full.Measure.2019.720p.BluRay.x264-GETiT

Genre ..............: Drama - War
Release Type .......: x264 2-Pass
Video Bitrate ......: 1280x536 @ 5284 kbps
Audio Bitrate ......: ENG dts 5.1 @ 1509 kbps
Substitles .........: no

Release Date .......: 28.01.2020
Size ...............: 5599 MB
Notes ..............: No News are Good NEWS!

https://www.imdb.com/title/tt0783640/
Grupo: GETiT
Versión: BDRip x264 1080p DTS
Tamaño: 8.0 GB
The.Last.Full.Measure.2019.1080p.BluRay.x264-GETiT

Genre ..............: Drama - War
Release Type .......: x264 2-Pass
Video Bitrate ......: 1920x808 @ 8365 kbps
Audio Bitrate ......: ENG dts 5.1 @ 1509 kbps
Substitles .........: no

Release Date .......: 28.01.2020
Size ...............: 8138 MB
Notes ..............: No News are Good NEWS!

https://www.imdb.com/title/tt0783640/
Trailer