70
PUNTOS
Calificar
CALIFICA
Calificar
Califica y/o escribe un comentario sobre la película.
Comentarios en el foroFORO

Ordinary Love (2019)

Drama ambientado en irlanda sobre Joan y Tom, un veterano matrimonio que se enfrenta a un gran impacto emocional cuando a ella la diagnostican cáncer de mama.
Director Lisa Barros D'Sa, Glenn Leyburn
Actores Liam Neeson, Lesley Manville, David Wilmot, Amit Shah
Duración 92 min
Streaming (Servicio externo)
Grupo: CMRG
Versión: WEB-DL x264 1080p DTS
Tamaño: 5.1 GB
General
Unique ID : 231958492490581453487543839041786949951 (0xAE8194A5C1D4096532DD2A91FA0F313F)
Complete name : Ordinary.Love.2019.1080p.WEB-DL.DD5.1.x264-CMRG.mkv
Format : Matroska
Format version : Version 4
File size : 5.16 GiB
Duration : 1 h 31 min
Overall bit rate : 8 040 kb/s
Encoded date : UTC 2020-04-05 23:01:29
Writing application : mkvmerge v25.0.0 ('Prog Noir') 32-bit
Writing library : libebml v1.3.6 + libmatroska v1.4.9

Video
ID : 1
Format : AVC
Format/Info : Advanced Video Codec
Format profile : [email protected]
Format settings : CABAC / 2 Ref Frames
Format settings, CABAC : Yes
Format settings, Reference frames : 2 frames
Codec ID : V_MPEG4/ISO/AVC
Duration : 1 h 31 min
Bit rate : 7 654 kb/s
Width : 1 920 pixels
Height : 1 080 pixels
Display aspect ratio : 16:9
Frame rate mode : Constant
Frame rate : 23.976 (24000/1001) FPS
Color space : YUV
Chroma subsampling : 4:2:0
Bit depth : 8 bits
Scan type : Progressive
Bits/(Pixel*Frame) : 0.154
Stream size : 4.92 GiB (95%)
Writing library : x264 core 155 r2901 7d0ff22
Default : Yes
Forced : No
Color range : Limited
Color primaries : BT.709
Transfer characteristics : BT.709
Matrix coefficients : BT.709

Audio
ID : 2
Format : AC-3
Format/Info : Audio Coding 3
Commercial name : Dolby Digital
Codec ID : A_AC3
Duration : 1 h 31 min
Bit rate mode : Constant
Bit rate : 384 kb/s
Channel(s) : 6 channels
Channel layout : L R C LFE Ls Rs
Sampling rate : 48.0 kHz
Frame rate : 31.250 FPS (1536 SPF)
Compression mode : Lossy
Stream size : 253 MiB (5%)
Title : English
Language : English
Service kind : Complete Main
Default : No
Forced : No

Text
ID : 3
Format : UTF-8
Codec ID : S_TEXT/UTF8
Codec ID/Info : UTF-8 Plain Text
Duration : 1 h 28 min
Bit rate : 50 b/s
Count of elements : 1145
Stream size : 32.7 KiB (0%)
Title : English
Language : English
Default : Yes
Forced : No
Trailer