70
PUNTOS
Calificar
CALIFICA
Calificar
Califica y/o escribe un comentario sobre la película.
Comentarios en el foroFORO

Rosie (2018)

Cuando su casero vende la casa en la que vivían hasta ese entonces, Rosie (Sarah Greene), John Paul (Moe Dunford) y su familia se quedan sin hogar. Con sus pertenencias metidas en su coche, tratan de sobrevivir como buenamente pueden a base de trabajos rutinarios. Incapaces de reconocer cuál es su situación rechazan la ayuda que les ofrece la madre de Rosie, por lo que se ven obligados a ir de hotel en hotel buscando alguno que acepte la única tarjeta de crédito que les permite pasar la noche a cubierto.
Director Paddy Breathnach
Actores Sarah Greene, Moe Dunford, Ellie O'Halloran, Ruby Dunne
Duración 86 min
Streaming (Servicio externo)
Grupo: SPOOKS
Versión: DVDRip x264 AAC
Tamaño: 341 MB
Rosie.2018.DVDRip.x264-SPOOKS

IMDB...........: https://www.imdb.com/title/tt8247470

Duration.......: 1 h 22 min
Video .........: x264 @ CRF 19 (471 Kbps)
Frame Rate.....: 25 fps
Resolution.....: 718x300
Audio..........: English 2ch AAC @ 105 Kbps
Subtitles......: English
Size...........: 340.5 MB
Grupo: FGT
Versión: WEB-DL H264 1080p AC3
Tamaño: 2.9 GB
Video
ID : 1
Format : AVC
Format/Info : Advanced Video Codec
Format profile : [email protected]
Format settings : CABAC / 5 Ref Frames
Format settings, CABAC : Yes
Format settings, Reference frames : 5 frames
Codec ID : V_MPEG4/ISO/AVC
Duration : 1 h 25 min
Bit rate : 4 524 kb/s
Width : 1 912 pixels
Height : 792 pixels
Display aspect ratio : 2.40:1
Frame rate mode : Constant
Frame rate : 24.000 FPS
Color space : YUV
Chroma subsampling : 4:2:0
Bit depth : 8 bits
Scan type : Progressive
Bits/(Pixel*Frame) : 0.124
Stream size : 2.71 GiB (92%)
Title : Rosie.2018.1080p.WEB-DL.DD5.1.H264-FGT
Language : English
Default : Yes
Forced : No
Color range : Limited
Color primaries : BT.709
Transfer characteristics : BT.709
Matrix coefficients : BT.709

Audio
ID : 2
Format : AC-3
Format/Info : Audio Coding 3
Commercial name : Dolby Digital
Codec ID : A_AC3
Duration : 1 h 25 min
Bit rate mode : Constant
Bit rate : 384 kb/s
Channel(s) : 6 channels
Channel layout : L R C LFE Ls Rs
Sampling rate : 48.0 kHz
Frame rate : 31.250 FPS (1536 SPF)
Compression mode : Lossy
Delay relative to video : -42 ms
Stream size : 235 MiB (8%)
Title : Rosie.2018.1080p.WEB-DL.DD5.1.H264-FGT
Language : English
Service kind : Complete Main
Default : Yes
Forced : No

Menu
00:00:00.000 : en:1
00:08:52.625 : en:2
00:18:21.166 : en:3
00:26:27.499 : en:4
00:35:39.249 : en:5
00:45:20.707 : en:6
00:53:46.332 : en:7
01:02:48.873 : en:8
01:11:58.289 : en:9
01:20:38.289 : en:10
Trailer