82
PUNTOS
Calificar
CALIFICA
Calificar
Califica y/o escribe un comentario sobre la película.
Comentarios en el foroFORO

Portrait de la jeune fille en feu (2019)

Francia, 1770. Marianne, una pintora, recibe un encargo que consiste en realizar el retrato de bodas de Héloïse, una joven que acaba de dejar el convento y que tiene serias dudas respecto a su próximo matrimonio. Marianne tiene que retratarla sin su conocimiento, por lo que se dedica a investigarla a diario.
Director Céline Sciamma
Actores Noémie Merlant, Adèle Haenel, Luàna Bajrami, Valeria Golino
Duración 122 min
Streaming (Servicio externo)
Grupo: BMDru
Versión: BDRip x264 720p AC3
Tamaño: 3.9 GB
Title........: Portrait de la jeune fille en feu (2019)
Release Group: BMDru 
Ripper ......: chinyan 
Release Date : 02/24/2020  
HD Source....: Portrait.de.la.jeune.fille.en.feu.2019.
               1080p.Blu-ray.AVC.DTS-HD.MA.5.1-PLP 
Video Format : x264
Video Bitrate: 4044KBit/s
Aspect Ratio : 1.850:1
Resolution ..: 1280 x 692
Audio Bitrate: AC3 640 Kbps, 48 KHz, 16 bits , 6-ch 
BD Length ...: 2:01:11 (h:m:s)
Frame Rate ..: 23.976 fps
Language.....: French
Subtitle(s) .: Chs(ass/srt) / Cht(ass/srt) / Eng(ass/srt)
Film Genre...: Drama, Romance
File Size ...: 3.95 GB 
IMDB Rating..: 8.2/10 from 17,253 users

http://www.imdb.com/title/tt8613070/

Subtitulos

Grupo: EXTREME
Versión: BDRip x264 720p DTS
Tamaño: 5.9 GB
Portrait.de.la.Jeune.Fille.en.Feu.2019.FRENCH.720p.BluRay.DTS.x264-EXTREME.mkv
Format                                   : Matroska
Format version                           : Version 4
File size                                : 5.53 GiB
Duration                                 : 2 h 1 min
Overall bit rate                         : 6 536 kb/s
Encoded date                             : UTC 2020-02-21 07:16:39
Writing application                      : mkvmerge v41.0.0 ('Smarra') 64-bit
Writing library                          : libebml v1.3.9 + libmatroska v1.5.2

Video
ID                                       : 3
Format                                   : AVC
Format/Info                              : Advanced Video Codec
Format profile                           : [email protected]
Format settings                          : CABAC / 4 Ref Frames
Format settings, CABAC                   : Yes
Format settings, ReFrames                : 4 frames
Codec ID                                 : V_MPEG4/ISO/AVC
Duration                                 : 2 h 1 min
Bit rate                                 : 5 028 kb/s
Width                                    : 1 280 pixels
Height                                   : 688 pixels
Display aspect ratio                     : 1.85:1
Frame rate mode                          : Constant
Frame rate                               : 24.000 FPS
Color space                              : YUV
Chroma subsampling                       : 4:2:0
Bit depth                                : 8 bits
Scan type                                : Progressive
Bits/(Pixel*Frame)                       : 0.238
Stream size                              : 4.25 GiB (77%)
Writing library                          : x264 core 157 r2935 545de2f
Encoding settings                        : cabac=1 / ref=3 / deblock=1:0:0 / analyse=0x3:0x113 / me=hex / subme=7 / psy=1 / psy_rd=1.00:0.00 / mixed_ref=1 / me_range=16 / chroma_me=1 / trellis=1 / 8x8dct=1 / cqm=0 / deadzone=21,11 / fast_pskip=1 / chroma_qp_offset=-2 / threads=21 / lookahead_threads=3 / sliced_threads=0 / nr=0 / decimate=1 / interlaced=0 / bluray_compat=0 / constrained_intra=0 / bframes=3 / b_pyramid=2 / b_adapt=1 / b_bias=0 / direct=1 / weightb=1 / open_gop=0 / weightp=2 / keyint=240 / keyint_min=24 / scenecut=40 / intra_refresh=0 / rc_lookahead=40 / rc=2pass / mbtree=1 / bitrate=5028 / ratetol=1.0 / qcomp=0.60 / qpmin=0 / qpmax=69 / qpstep=4 / cplxblur=20.0 / qblur=0.5 / vbv_maxrate=62500 / vbv_bufsize=78125 / nal_hrd=none / filler=0 / ip_ratio=1.40 / aq=1:1.00
Default                                  : Yes
Forced                                   : No

Audio
ID                                       : 1
Format                                   : DTS
Format/Info                              : Digital Theater Systems
Codec ID                                 : A_DTS
Duration                                 : 2 h 1 min
Bit rate mode                            : Constant
Bit rate                                 : 1 509 kb/s
Channel(s)                               : 6 channels
Channel layout                           : C L R Ls Rs LFE
Sampling rate                            : 48.0 kHz
Frame rate                               : 93.750 FPS (512 SPF)
Bit depth                                : 24 bits
Compression mode                         : Lossy
Stream size                              : 1.28 GiB (23%)
Language                                 : French
Default                                  : Yes
Forced                                   : No

Text
ID                                       : 2
Format                                   : UTF-8
Codec ID                                 : S_TEXT/UTF8
Codec ID/Info                            : UTF-8 Plain Text
Duration                                 : 1 min 16 s
Bit rate                                 : 33 b/s
Count of elements                        : 14
Stream size                              : 319 Bytes (0%)
Title                                    : Forced
Language                                 : French
Default                                  : Yes
Forced                                   : No

Menu
00:00:00.000                             : en:Chapter 01
00:08:41.375                             : en:Chapter 02
00:18:39.916                             : en:Chapter 03
00:29:06.625                             : en:Chapter 04
00:40:16.375                             : en:Chapter 05
00:48:50.208                             : en:Chapter 06
00:58:21.833                             : en:Chapter 07
01:07:31.708                             : en:Chapter 08
01:20:03.333                             : en:Chapter 09
01:27:38.375                             : en:Chapter 10
01:38:52.750                             : en:Chapter 11
01:47:55.416                             : en:Chapter 12
Trailer