63
PUNTOS
Calificar
CALIFICA
Calificar
Califica y/o escribe un comentario sobre la película.
Comentarios en el foroFORO

Les confins du monde (2018)

Robert Tassen, un joven soldado francés, es el único superviviente de una masacre en la que su hermano fue asesinado ante sus ojos. Cegado por su venganza, Robert se embarca en una búsqueda secreta y solitaria de los asesinos. Pero conocer a la joven Maï, alterará sus creencias.
Director Guillaume Nicloux
Actores Gaspard Ulliel, Guillaume Gouix, Lang Khê Tran, Gérard Depardieu
Duración 103 min
Streaming (Servicio externo)
Grupo: PREUMS
Versión: WEB h264 720p AC3
Tamaño: 1.7 GB
Les.Confins.Du.Monde.2018.FRENCH.720p.WEB.h264-PREUMS.mkv
Format                                   : Matroska
Format version                           : Version 2
File size                                : 1.58 GiB
Duration                                 : 1 h 42 min
Overall bit rate                         : 2 201 kb/s
Movie name                               : Les confins du monde 720p
Encoded date                             : UTC 2019-04-05 11:47:53
Writing application                      : DVDFab 10.0.7.2
Writing library                          : libebml v1.3.4 + libmatroska v1.4.5

Video
ID                                       : 1
Format                                   : AVC
Format/Info                              : Advanced Video Codec
Format profile                           : [email protected]
Format settings                          : CABAC / 3 Ref Frames
Format settings, CABAC                   : Yes
Format settings, ReFrames                : 3 frames
Codec ID                                 : V_MPEG4/ISO/AVC
Duration                                 : 1 h 42 min
Bit rate                                 : 1 815 kb/s
Width                                    : 1 280 pixels
Height                                   : 492 pixels
Display aspect ratio                     : 2.602
Frame rate mode                          : Constant
Frame rate                               : 24.000 FPS
Color space                              : YUV
Chroma subsampling                       : 4:2:0
Bit depth                                : 8 bits
Scan type                                : Progressive
Bits/(Pixel*Frame)                       : 0.120
Stream size                              : 1.30 GiB (82%)
Writing library                          : x264 core 148
Encoding settings                        : cabac=1 / ref=3 / deblock=1:-1:-1 / analyse=0x3:0 / me=hex / subme=5 / psy=1 / psy_rd=1.00:0.00 / mixed_ref=0 / me_range=16 / chroma_me=1 / trellis=1 / 8x8dct=1 / cqm=0 / deadzone=21,11 / fast_pskip=0 / chroma_qp_offset=0 / threads=16 / lookahead_threads=3 / sliced_threads=0 / nr=0 / decimate=1 / interlaced=0 / bluray_compat=0 / constrained_intra=0 / bframes=2 / b_pyramid=0 / b_adapt=1 / b_bias=0 / direct=1 / weightb=0 / open_gop=0 / weightp=0 / keyint=24 / keyint_min=2 / scenecut=40 / intra_refresh=0 / rc=crf / mbtree=0 / crf=21.0 / qcomp=0.60 / qpmin=0 / qpmax=69 / qpstep=4 / ip_ratio=1.40 / pb_ratio=1.30 / aq=1:1.00
Default                                  : Yes
Forced                                   : No
Color range                              : Limited
Color primaries                          : BT.709
Transfer characteristics                 : BT.709
Matrix coefficients                      : BT.709

Audio
ID                                       : 2
Format                                   : AC-3
Format/Info                              : Audio Coding 3
Codec ID                                 : A_AC3
Duration                                 : 1 h 42 min
Bit rate mode                            : Constant
Bit rate                                 : 384 kb/s
Channel(s)                               : 6 channels
Channel positions                        : Front: L C R, Side: L R, LFE
Sampling rate                            : 48.0 kHz
Frame rate                               : 31.250 FPS (1536 SPF)
Bit depth                                : 16 bits
Compression mode                         : Lossy
Stream size                              : 282 MiB (17%)
Language                                 : French
Service kind                             : Complete Main
Default                                  : Yes
Forced                                   : No

Subtitulos

Grupo: PREUMS
Versión: WEB h264 1080p AC3
Tamaño: 3.8 GB
Les.Confins.Du.Monde.2018.FRENCH.1080p.WEB.h264-PREUMS.mkv
Format                                   : Matroska
Format version                           : Version 4 / Version 2
File size                                : 3.55 GiB
Duration                                 : 1 h 42 min
Overall bit rate                         : 4 954 kb/s
Movie name                               : PREUMS Present: Les confins du monde
Encoded date                             : UTC 2019-04-05 11:16:05
Writing application                      : mkvmerge v22.0.0 ('At The End Of The World') 64-bit
Writing library                          : libebml v1.3.5 + libmatroska v1.4.8

Video
ID                                       : 1
Format                                   : AVC
Format/Info                              : Advanced Video Codec
Format profile                           : [email protected]
Format settings                          : CABAC / 5 Ref Frames
Format settings, CABAC                   : Yes
Format settings, ReFrames                : 5 frames
Codec ID                                 : V_MPEG4/ISO/AVC
Duration                                 : 1 h 42 min
Bit rate                                 : 4 568 kb/s
Width                                    : 1 912 pixels
Height                                   : 732 pixels
Display aspect ratio                     : 2.612
Frame rate mode                          : Constant
Frame rate                               : 24.000 FPS
Color space                              : YUV
Chroma subsampling                       : 4:2:0
Bit depth                                : 8 bits
Scan type                                : Progressive
Bits/(Pixel*Frame)                       : 0.136
Stream size                              : 3.27 GiB (92%)
Language                                 : French
Default                                  : Yes
Forced                                   : No
Color range                              : Limited
Color primaries                          : BT.709
Transfer characteristics                 : BT.709
Matrix coefficients                      : BT.709

Audio
ID                                       : 2
Format                                   : AC-3
Format/Info                              : Audio Coding 3
Codec ID                                 : A_AC3
Duration                                 : 1 h 42 min
Bit rate mode                            : Constant
Bit rate                                 : 384 kb/s
Channel(s)                               : 6 channels
Channel positions                        : Front: L C R, Side: L R, LFE
Sampling rate                            : 48.0 kHz
Frame rate                               : 31.250 FPS (1536 SPF)
Bit depth                                : 16 bits
Compression mode                         : Lossy
Stream size                              : 282 MiB (8%)
Title                                    : French 5.1
Language                                 : French
Service kind                             : Complete Main
Default                                  : Yes
Forced                                   : No

Subtitulos

Trailer