72
PUNTOS
Calificar
CALIFICA
Calificar
Califica y/o escribe un comentario sobre la película.
Comentarios en el foroFORO

Dylda (2019)

Leningrado, 1945. La Segunda Guerra Mundial ha devastado la ciudad y derruido sus edificios, dejando a sus ciudadanos en la miseria tanto a nivel físico como psíquico. El asedio (uno de los peores de la Historia) ha terminado, la vida y la muerte continúan combatiendo en el desastre que la guerra deja tras de sí. Dos mujeres jóvenes, Iya y Masha, tratan de encontrar un sentido a sus vidas para reunir fuerzas de cara a reconstruir la ciudad.
Director Kantemir Balagov
Actores Viktoria Miroshnichenko, Vasilisa Perelygina, Andrey Bykov, Igor Shirokov
Duración 130 min
Streaming (Servicio externo)
Grupo: LATENCY
Versión: BDRip x264
Tamaño: 1.0 GB
Beanpole.2020.BDRip.x264-LATENCY

imdb  : https://www.imdb.com/title/tt10199640/

video :720x390 @ crf 19.0
audio :Russian AAC LC VBR LC 128kb/s
subs  :English forced (.srt)
time  :2 h 17 min
size  :993MB
notes :

Subtitulos

Grupo: LATENCY
Versión: BDRip x264 720p
Tamaño: 10.2 GB
Beanpole.2020.720p.BluRay.x264-LATENCY

imdb  : https://www.imdb.com/title/tt10199640/

video :1280x694 @ 9992kb/s - crf: 18.0
source: 34949kb/s
%-age :28.59%
audio :Russian AC-3 640kb/s
subs  :English forced (.srt)  English (PGS)
time  :2 h 17 min
size  :10.2GB

Subtitulos

Grupo: LATENCY
Versión: BDRip x264 1080p
Tamaño: 22.6 GB
Beanpole.2020.1080p.BluRay.x264-LATENCY

imdb  : https://www.imdb.com/title/tt10199640/

video :1920x1040 @ 20534kb/s - crf: 19.0
source: 34949kb/s
%-age :58.75%
audio :Russian DTS-HD MA 2953kb/s
subs  :English (PGS)  English forced (.srt)
time  :2 h 17 min
size  :22.6GB

Subtitulos

Grupo: MZABI
Versión: WEB-DL h264 720p
Tamaño: 5.4 GB
General
Unique ID : 70041125444108912972086874768745217226 (0x34B16E19EDB97692BE7F836A88B0BCCA)
Complete name : Dylda.2019.720p.AMZN.WEB-DL.DDP2.0.H.264-MZABI.mkv
Format : Matroska
Format version : Version 4 / Version 2
File size : 5.43 GiB
Duration : 2 h 17 min
Overall bit rate : 5 655 kb/s
Encoded date : UTC 2019-10-13 22:31:48
Writing application : mkvmerge v25.0.0 ('Prog Noir') 32-bit
Writing library : libebml v1.3.6 + libmatroska v1.4.9

Video
ID : 1
Format : AVC
Format/Info : Advanced Video Codec
Format profile : [email protected]
Format settings, CABAC : Yes
Format settings, ReFrames : 4 frames
Codec ID : V_MPEG4/ISO/AVC
Duration : 2 h 17 min
Bit rate mode : Constant
Bit rate : 5 429 kb/s
Nominal bit rate : 6 000 kb/s
Width : 1 280 pixels
Height : 688 pixels
Display aspect ratio : 1.85:1
Frame rate mode : Constant
Frame rate : 24.000 FPS
Color space : YUV
Chroma subsampling : 4:2:0
Bit depth : 8 bits
Scan type : Progressive
Bits/(Pixel*Frame) : 0.257
Stream size : 5.21 GiB (96%)
Default : Yes
Forced : No
Color range : Limited
Color primaries : BT.709
Transfer characteristics : BT.709
Matrix coefficients : BT.709

Audio
ID : 2
Format : E-AC-3
Format/Info : Enhanced Audio Coding 3
Format settings, Endianness : Big
Codec ID : A_EAC3
Duration : 2 h 17 min
Bit rate mode : Constant
Bit rate : 224 kb/s
Channel(s) : 2 channels
Channel positions : Front: L R
Sampling rate : 48.0 kHz
Frame rate : 187.500 FPS (256 spf)
Compression mode : Lossy
Stream size : 220 MiB (4%)
Title : Russian
Language : Russian
Default : No
Forced : No

Text
ID : 3
Format : UTF-8
Codec ID : S_TEXT/UTF8
Codec ID/Info : UTF-8 Plain Text
Duration : 2 h 11 min
Bit rate : 20 b/s
Count of elements : 884
Stream size : 20.1 KiB (0%)
Title : English
Language : English
Default : No
Forced : No
Trailer