71
PUNTOS
Calificar
CALIFICA
Calificar
Califica y/o escribe un comentario sobre la película.
Comentarios en el foroFORO

Unga Astrid (2018)

Biopic de la escritora sueca Astrid Lindgren, creadora de Pippi Calzaslargas, que acabó convirtiéndose en un fenómeno mundial para varias generaciones de niños y adultos. Según confesiones de la propia Astrid, se sabe que el nombre de 'Pippi' lo concibió cuando su hijo de siete años, enfermo de una infección pulmonar en el invierno de 1941, le pidió que le narrara, a fin de matar el tedio en sus horas de encierro, las aventuras de una niña llamada "Pippi Calzaslargas". Dos años después, mientras Astrid Lindgren reposaba de una fractura en la pierna, aprovechó su tiempo para escribir las aventuras de esta niña traviesa que pronto daría la vuelta el mundo y se convertiría en un símbolo feminista.
Director Pernille Fischer Christensen
Actores Alba August, Trine Dyrholm, Henrik Rafaelsen, Björn Gustafsson
Duración 123 min
Streaming (Servicio externo)
Grupo: APVRAL
Versión: BDRip x264 AAC
Tamaño: 650 MB
Becoming.Astrid.2018.BDRip.x264-APVRAL

Genre......: Biography, Drama
Language...: Swedish
Length.....: 123min
Resolution.: 720x302   
Video .....: X264 @ Crf 19
Audio......: AAC LC 2ch
Subs.......: EN

Subtitulos

Grupo: APVRAL
Versión: BDRip x264 1080p DTS
Tamaño: 8.7 GB
Video
ID : 1
Format : AVC
Format/Info : Advanced Video Codec
Format profile : [email protected]
Format settings : CABAC / 5 Ref Frames
Format settings, CABAC : Yes
Format settings, ReFrames : 5 frames
Codec ID : V_MPEG4/ISO/AVC
Duration : 2 h 3 min
Bit rate : 8 653 kb/s
Width : 1 920 pixels
Height : 808 pixels
Display aspect ratio : 2.40:1
Frame rate mode : Constant
Frame rate : 24.000 FPS
Color space : YUV
Chroma subsampling : 4:2:0
Bit depth : 8 bits
Scan type : Progressive
Bits/(Pixel*Frame) : 0.232
Stream size : 7.44 GiB (85%)
Writing library : x264 core 157 r2935 545de2f
Encoding settings : cabac=1 / ref=5 / deblock=1:0:0 / analyse=0x3:0x133 / me=umh / subme=8 / psy=1 / psy_rd=1.00:0.00 / mixed_ref=1 / me_range=16 / chroma_me=1 / trellis=2 / 8x8dct=1 / cqm=0 / deadzone=21,11 / fast_pskip=0 / chroma_qp_offset=-2 / threads=18 / lookahead_threads=3 / sliced_threads=0 / nr=0 / decimate=1 / interlaced=0 / bluray_compat=0 / constrained_intra=0 / bframes=3 / b_pyramid=2 / b_adapt=1 / b_bias=0 / direct=3 / weightb=1 / open_gop=0 / weightp=2 / keyint=250 / keyint_min=24 / scenecut=40 / intra_refresh=0 / rc_lookahead=50 / rc=2pass / mbtree=1 / bitrate=8653 / ratetol=1.0 / qcomp=0.60 / qpmin=0 / qpmax=69 / qpstep=4 / cplxblur=20.0 / qblur=0.5 / ip_ratio=1.40 / aq=1:1.00
Language : Swedish
Default : Yes
Forced : No

Audio
ID : 2
Format : DTS
Format/Info : Digital Theater Systems
Codec ID : A_DTS
Duration : 2 h 3 min
Bit rate mode : Constant
Bit rate : 1 509 kb/s
Channel(s) : 6 channels
Channel layout : C L R Ls Rs LFE
Sampling rate : 48.0 kHz
Frame rate : 93.750 FPS (512 SPF)
Bit depth : 24 bits
Compression mode : Lossy
Stream size : 1.30 GiB (15%)
Language : Swedish
Default : Yes
Forced : No

Text
ID : 3
Format : UTF-8
Codec ID : S_TEXT/UTF8
Codec ID/Info : UTF-8 Plain Text
Duration : 2 h 1 min
Bit rate : 27 b/s
Count of elements : 733
Stream size : 24.4 KiB (0%)
Language : English
Default : Yes
Forced : No

Menu
00:00:00.000 : :Chapter 01
00:10:00.958 : :Chapter 02
00:20:00.917 : :Chapter 03
00:30:00.583 : :Chapter 04
00:40:00.708 : :Chapter 05
00:50:00.833 : :Chapter 06
01:00:01.000 : :Chapter 07
01:10:00.542 : :Chapter 08
01:20:00.792 : :Chapter 09
01:30:00.750 : :Chapter 10
01:40:00.958 : :Chapter 11
01:50:00.542 : :Chapter 12

Subtitulos

Grupo: APVRAL
Versión: BDRip x264 720p DTS
Tamaño: 5.4 GB
Video
ID : 1
Format : AVC
Format/Info : Advanced Video Codec
Format profile : [email protected]
Format settings : CABAC / 5 Ref Frames
Format settings, CABAC : Yes
Format settings, ReFrames : 5 frames
Codec ID : V_MPEG4/ISO/AVC
Duration : 2 h 3 min
Bit rate : 4 838 kb/s
Width : 1 280 pixels
Height : 536 pixels
Display aspect ratio : 2.40:1
Frame rate mode : Constant
Frame rate : 24.000 FPS
Color space : YUV
Chroma subsampling : 4:2:0
Bit depth : 8 bits
Scan type : Progressive
Bits/(Pixel*Frame) : 0.294
Stream size : 4.16 GiB (76%)
Writing library : x264 core 157 r2935 545de2f
Encoding settings : cabac=1 / ref=5 / deblock=1:0:0 / analyse=0x3:0x133 / me=umh / subme=8 / psy=1 / psy_rd=1.00:0.00 / mixed_ref=1 / me_range=16 / chroma_me=1 / trellis=2 / 8x8dct=1 / cqm=0 / deadzone=21,11 / fast_pskip=0 / chroma_qp_offset=-2 / threads=17 / lookahead_threads=2 / sliced_threads=0 / nr=0 / decimate=1 / interlaced=0 / bluray_compat=0 / constrained_intra=0 / bframes=3 / b_pyramid=2 / b_adapt=1 / b_bias=0 / direct=3 / weightb=1 / open_gop=0 / weightp=2 / keyint=250 / keyint_min=24 / scenecut=40 / intra_refresh=0 / rc_lookahead=50 / rc=2pass / mbtree=1 / bitrate=4838 / ratetol=1.0 / qcomp=0.60 / qpmin=0 / qpmax=69 / qpstep=4 / cplxblur=20.0 / qblur=0.5 / ip_ratio=1.40 / aq=1:1.00
Language : Swedish
Default : Yes
Forced : No

Audio
ID : 2
Format : DTS
Format/Info : Digital Theater Systems
Codec ID : A_DTS
Duration : 2 h 3 min
Bit rate mode : Constant
Bit rate : 1 509 kb/s
Channel(s) : 6 channels
Channel layout : C L R Ls Rs LFE
Sampling rate : 48.0 kHz
Frame rate : 93.750 FPS (512 SPF)
Bit depth : 24 bits
Compression mode : Lossy
Stream size : 1.30 GiB (24%)
Language : Swedish
Default : Yes
Forced : No

Text
ID : 3
Format : UTF-8
Codec ID : S_TEXT/UTF8
Codec ID/Info : UTF-8 Plain Text
Duration : 2 h 1 min
Bit rate : 27 b/s
Count of elements : 733
Stream size : 24.4 KiB (0%)
Language : English
Default : Yes
Forced : No

Menu
00:00:00.000 : :Chapter 01
00:10:00.958 : :Chapter 02
00:20:00.917 : :Chapter 03
00:30:00.583 : :Chapter 04
00:40:00.708 : :Chapter 05
00:50:00.833 : :Chapter 06
01:00:01.000 : :Chapter 07
01:10:00.542 : :Chapter 08
01:20:00.792 : :Chapter 09
01:30:00.750 : :Chapter 10
01:40:00.958 : :Chapter 11
01:50:00.542 : :Chapter 12

Subtitulos

Trailer