64
PUNTOS
Calificar
CALIFICA
Calificar
Califica y/o escribe un comentario sobre la película.
Comentarios en el foroFORO

Les premiers les derniers (2016)

En una llanura infinita barrida por el viento, Cochise y Gilou, dos cazadores de recompensas inseparables están buscando un teléfono robado con contenido muy importante. Su camino se cruza con el de Esther y Willy, una pareja en fuga.
Director Bouli Lanners
Actores Albert Dupontel, Bouli Lanners, Suzanne Clément, Michael Lonsdale
Duración 98 min
Streaming (Servicio externo)
Grupo: LOFiDEL
Versión: BDRip x264 AAC
Tamaño: 275 MB
?  ????? ????? ??? ??? ?
?  ?   ? ??? ?   ? ?   ?
?  ????? ?   ? ??? ??? ???
???????????????????????????????????????????????????????????????????????????????
                                                                              ?
           Les.Premiers.Les.Derniers.2016.FRENCH.BDRip.x264-LOFiDEL           ?
                                                                              ?
                                                                              ?
Title ??????? Les premiers les derniers                                       ?
IMDb ???????? http://www.imdb.com/title/tt5072542 ? 6.7/10 ? 397 votes        ?
Size ???????? 284.9 MiB ? 01:32:52                                            ?
Video ??????? x264 @ CRF 19 (316 Kbps) ? 720x300 ? 25 fps                     ?
Audio ??????? French AAC LC 2.0 @ 111 Kbps                                    ?
Subs ???????? French (SDH)                                                    ?
                                                                              ?
???????????????????????????????????????????????????????????????????????????????

Subtitulos

Grupo: FiDELiO
Versión: BDRip x264 720p DTS
Tamaño: 4.4 GB
General
Unique ID : 47771597235581259268969925028081320373 (0x23F07997069CA12AF862F67CAB1C41B5)
Complete name : Les.Premiers.Les.Derniers.2016.FRENCH.720p.BluRay.x264-FiDELiO.mkv
Format : Matroska
Format version : Version 4
File size : 4.37 GiB
Duration : 1 h 32 min
Overall bit rate : 6 739 kb/s
Encoded date : UTC 2019-07-24 16:24:40
Writing application : mkvmerge v21.0.0 ('Tardigrades Will Inherit The Earth') 64-bit
Writing library : libebml v1.3.5 + libmatroska v1.4.8 / Lavf57.56.100

Video
ID : 1
Format : AVC
Format/Info : Advanced Video Codec
Format profile : [email protected]
Format settings : CABAC / 12 Ref Frames
Format settings, CABAC : Yes
Format settings, RefFrames : 12 frames
Codec ID : V_MPEG4/ISO/AVC
Duration : 1 h 32 min
Bit rate : 5 228 kb/s
Width : 1 280 pixels
Height : 536 pixels
Display aspect ratio : 2.40:1
Frame rate mode : Constant
Frame rate : 25.000 FPS
Color space : YUV
Chroma subsampling : 4:2:0
Bit depth : 8 bits
Scan type : Progressive
Bits/(Pixel*Frame) : 0.305
Stream size : 3.39 GiB (78%)
Writing library : x264 core 148 r2762 90a61ec
Encoding settings : cabac=1 / ref=12 / deblock=1:0:0 / analyse=0x3:0x133 / me=umh / subme=10 / psy=1 / psy_rd=1.00:0.00 / mixed_ref=1 / me_range=24 / chroma_me=1 / trellis=2 / 8x8dct=1 / cqm=0 / deadzone=21,11 / fast_pskip=1 / chroma_qp_offset=-2 / threads=17 / lookahead_threads=2 / sliced_threads=0 / nr=0 / decimate=1 / interlaced=0 / bluray_compat=0 / constrained_intra=0 / bframes=8 / b_pyramid=2 / b_adapt=2 / b_bias=0 / direct=3 / weightb=1 / open_gop=0 / weightp=2 / keyint=250 / keyint_min=25 / scenecut=40 / intra_refresh=0 / rc_lookahead=60 / rc=2pass / mbtree=1 / bitrate=5228 / ratetol=1.0 / qcomp=0.60 / qpmin=0 / qpmax=69 / qpstep=4 / cplxblur=20.0 / qblur=0.5 / ip_ratio=1.40 / aq=1:1.00
Language : English
Default : Yes
Forced : No

Audio
ID : 2
Format : DTS
Format/Info : Digital Theater Systems
Codec ID : A_DTS
Duration : 1 h 32 min
Bit rate mode : Constant
Bit rate : 1 509 kb/s
Channel(s) : 6 channels
Channel layout : C L R Ls Rs LFE
Sampling rate : 48.0 kHz
Frame rate : 93.750 FPS (512 SPF)
Bit depth : 24 bits
Compression mode : Lossy
Stream size : 1 002 MiB (22%)
Title : French audio
Language : French
Default : Yes
Forced : No

Text #1
ID : 3
Format : UTF-8
Codec ID : S_TEXT/UTF8
Codec ID/Info : UTF-8 Plain Text
Duration : 1 h 24 min
Bit rate : 22 b/s
Count of elements : 607
Stream size : 14.0 KiB (0%)
Language : English
Default : Yes
Forced : No

Text #2
ID : 4
Format : UTF-8
Codec ID : S_TEXT/UTF8
Codec ID/Info : UTF-8 Plain Text
Duration : 1 h 31 min
Bit rate : 28 b/s
Count of elements : 817
Stream size : 18.9 KiB (0%)
Title : French SDH
Language : French
Default : No
Forced : No

Menu
00:00:00.000 : en:00:00:00.000
00:08:20.240 : en:00:08:20.240
00:18:14.680 : en:00:18:14.680
00:28:08.560 : en:00:28:08.560
00:35:58.160 : en:00:35:58.160
00:42:38.400 : en:00:42:38.400
00:46:51.480 : en:00:46:51.480
00:54:53.800 : en:00:54:53.800
01:04:56.080 : en:01:04:56.080
01:11:55.280 : en:01:11:55.280
01:19:04.360 : en:01:19:04.360
01:27:33.600 : en:01:27:33.600

Subtitulos

Trailer