74
PUNTOS
Calificar
CALIFICA
Calificar
Califica y/o escribe un comentario sobre la película.
Comentarios en el foroFORO

Das schweigende Klassenzimmer (2018)

Berlín, 1956. Faltan cinco años para la construcción del muro. Un grupo de estudiantes alemanes decide mostrar su solidaridad con las víctimas de la Revolución Húngara de 1956 con un minuto de silencio durante las clases.
Director Lars Kraume
Actores Leonard Scheicher, Tom Gramenz, Lena Klenke, Isaiah Michalski
Duración 111 min
Streaming (Servicio externo)
Grupo: iMPERiUM
Versión: BDRip x264 AAC
Tamaño: 900 MB
Format                                   : Matroska
Format version                           : Version 2
File size                                : 859 MiB
Duration                                 : 1 h 51 min
Overall bit rate                         : 1 077 kb/s
Writing application                      : mkvmerge v4.1.1 ('Bouncin' Back') built on Jul  3 2010 22:54:08
Writing library                          : libebml v1.0.0 + libmatroska v1.0

Video
ID                                       : 1
Format                                   : AVC
Format/Info                              : Advanced Video Codec
Format profile                           : [email protected]
Format settings                          : CABAC / 5 Ref Frames
Format settings, CABAC                   : Yes
Format settings, ReFrames                : 5 frames
Codec ID                                 : V_MPEG4/ISO/AVC
Duration                                 : 1 h 51 min
Bit rate                                 : 672 kb/s
Width                                    : 720 pixels
Height                                   : 302 pixels
Display aspect ratio                     : 2.40:1
Frame rate mode                          : Constant
Frame rate                               : 24.000 FPS
Color space                              : YUV
Chroma subsampling                       : 4:2:0
Bit depth                                : 8 bits
Scan type                                : Progressive
Bits/(Pixel*Frame)                       : 0.129
Stream size                              : 535 MiB (62%)
Writing library                          : x264 core 155 r2901 7d0ff22
Encoding settings                        : cabac=1 / ref=5 / deblock=1:-3:-3 / analyse=0x3:0x113 / me=umh / subme=7 / psy=1 / psy_rd=1.00:0.15 / mixed_ref=1 / me_range=16 / chroma_me=1 / trellis=1 / 8x8dct=1 / cqm=0 / deadzone=21,11 / fast_pskip=0 / chroma_qp_offset=-3 / threads=9 / lookahead_threads=1 / sliced_threads=0 / nr=0 / decimate=1 / interlaced=0 / bluray_compat=0 / constrained_intra=0 / bframes=3 / b_pyramid=2 / b_adapt=2 / b_bias=0 / direct=3 / weightb=1 / open_gop=0 / weightp=2 / keyint=240 / keyint_min=24 / scenecut=40 / intra_refresh=0 / rc_lookahead=40 / rc=crf / mbtree=1 / crf=19.0 / qcomp=0.60 / qpmin=0 / qpmax=69 / qpstep=4 / ip_ratio=1.40 / aq=1:1.00
Language                                 : English
Default                                  : Yes
Forced                                   : No
Color range                              : Limited
Matrix coefficients                      : BT.709

Audio
ID                                       : 2
Format                                   : AC-3
Format/Info                              : Audio Coding 3
Codec ID                                 : A_AC3
Duration                                 : 1 h 51 min
Bit rate mode                            : Constant
Bit rate                                 : 384 kb/s
Channel(s)                               : 6 channels
Channel positions                        : Front: L C R, Side: L R, LFE
Sampling rate                            : 48.0 kHz
Frame rate                               : 31.250 FPS (1536 SPF)
Bit depth                                : 16 bits
Compression mode                         : Lossy
Stream size                              : 306 MiB (36%)
Language                                 : German
Service kind                             : Complete Main
Default                                  : Yes
Forced                                   : No

Menu
00:00:00.000                             : en:00:00:00.000
00:09:59.167                             : en:00:09:59.167
00:21:12.542                             : en:00:21:12.542
00:32:31.625                             : en:00:32:31.625
00:42:24.542                             : en:00:42:24.542
00:52:24.542                             : en:00:52:24.542
01:03:10.917                             : en:01:03:10.917
01:11:59.250                             : en:01:11:59.250
01:23:24.792                             : en:01:23:24.792
01:33:30.417                             : en:01:33:30.417
01:43:44.083                             : en:01:43:44.083

Subtitulos

Grupo: SHOWEHD
Versión: BDRip x264 1080p DTS
Tamaño: 8.0 GB
Release Title: Das.schweigende.Klassenzimmer.2018.German.DTS.1080p.BluRay.x264-SHOWEHD
FORMAT.......: x264 / MKV
ViDEO........: 1920 x 800 @ 8102 Kbps
AUDiO........: German DTS 5.1 @ 1509 Kbps
SUBS.........: German Full

RUNTiME......: 1 h 51 min
SiZE.........: 7,49 GB
GENRE........: Drama, History 
iMDB.........: https://www.imdb.com/title/tt6576556/
iMDB.........: 7,5/10 from 474 users

Subtitulos

Trailer