66
PUNTOS
Calificar
CALIFICA
Calificar
Califica y/o escribe un comentario sobre la película.
Comentarios en el foroFORO

Doubles vies (2019)

A Alain, un exitoso editor parisino, y a Léonard, uno de sus autores de toda la vida, les cuesta aceptar por completo el mundo digital actual... y puede que la crisis de la mediana edad. Cuando se reúnen para debatir sobre el nuevo manuscrito de Léonard, Alain debe encontrar una manera elegante de decirle a Léonard que se está quedando atrás, de exponerle sus dudas, mientras que la esposa de Alain, Selena, cree que por fin Léonard ha conseguido realizar su obra maestra.
Director Olivier Assayas
Actores Guillaume Canet, Juliette Binoche, Vincent Macaigne, Christa Théret
Duración 108 min
Streaming (Servicio externo)
Grupo: THREESOME
Versión: BDRip x264 720p DTS
Tamaño: 4.3 GB
General
Unique ID : 133091453685856339648558574268456443778 (0x64207B4A1BDF8F58FEF2650857051F82)
Complete name : Doubles.Vies.2018.FRENCH.720p.BluRay.x264-THREESOME/Doubles.Vies.2018.FRENCH.720p.BluRay.x264-THREESOME.mkv
Format : Matroska
Format version : Version 4
File size : 4.37 GiB
Duration : 1 h 47 min
Overall bit rate : 5 833 kb/s
Encoded date : UTC 2019-10-02 13:31:13
Writing application : mkvmerge v37.0.0 ('Leave It') 64-bit
Writing library : libebml v1.3.9 + libmatroska v1.5.2

Video
ID : 1
Format : AVC
Format/Info : Advanced Video Codec
Format profile : [email protected]
Format settings : CABAC / 5 Ref Frames
Format settings, CABAC : Yes
Format settings, Reference fra : 5 frames
Codec ID : V_MPEG4/ISO/AVC
Duration : 1 h 47 min
Bit rate : 4 324 kb/s
Width : 1 280 pixels
Height : 688 pixels
Display aspect ratio : 1.85:1
Frame rate mode : Constant
Frame rate : 24.000 FPS
Color space : YUV
Chroma subsampling : 4:2:0
Bit depth : 8 bits
Scan type : Progressive
Bits/(Pixel*Frame) : 0.205
Stream size : 3.23 GiB (74%)
Title : Doubles.Vies.2018.FRENCH.720p.BluRay.x264-THREESOME
Writing library : x264 core 157 r2969 d4099dd
Encoding settings : cabac=1 / ref=5 / deblock=1:0:0 / analyse=0x3:0x113 / me=umh / subme=8 / psy=1 / psy_rd=1.00:0.00 / mixed_ref=1 / me_range=16 / chroma_me=1 / trellis=2 / 8x8dct=1 / cqm=0 / deadzone=21,11 / fast_pskip=1 / chroma_qp_offset=-2 / threads=21 / lookahead_threads=3 / sliced_threads=0 / nr=0 / decimate=1 / interlaced=0 / bluray_compat=0 / constrained_intra=0 / bframes=3 / b_pyramid=2 / b_adapt=2 / b_bias=0 / direct=3 / weightb=1 / open_gop=0 / weightp=2 / keyint=240 / keyint_min=24 / scenecut=40 / intra_refresh=0 / rc_lookahead=50 / rc=2pass / mbtree=1 / bitrate=4324 / ratetol=1.0 / qcomp=0.60 / qpmin=0 / qpmax=69 / qpstep=4 / cplxblur=20.0 / qblur=0.5 / ip_ratio=1.40 / aq=1:1.00
Default : Yes
Forced : No

Audio
ID : 2
Format : DTS
Format/Info : Digital Theater Systems
Codec ID : A_DTS
Duration : 1 h 47 min
Bit rate mode : Constant
Bit rate : 1 509 kb/s
Channel(s) : 6 channels
Channel layout : C L R Ls Rs LFE
Sampling rate : 48.0 kHz
Frame rate : 93.750 FPS (512 SPF)
Bit depth : 24 bits
Compression mode : Lossy
Stream size : 1.13 GiB (26%)
Title : French
Language : French
Default : Yes
Forced : No

Menu
00:00:00.000 : :Capítulo 01
00:09:57.750 : :Capítulo 02
00:18:52.125 : :Capítulo 03
00:25:58.875 : :Capítulo 04
00:35:16.333 : :Capítulo 05
00:45:21.875 : :Capítulo 06
00:55:13.042 : :Capítulo 07
01:03:02.458 : :Capítulo 08
01:11:11.542 : :Capítulo 09
01:20:25.958 : :Capítulo 10
01:29:51.458 : :Capítulo 11
01:37:41.250 : :Capítulo 12
01:43:53.625 : :Capítulo 13

Subtitulos

Grupo: THREESOME
Versión: BDRip x264 1080p DTS
Tamaño: 7.6 GB
General
Unique ID : 11993331931468030980758304655856769904 (0x905D4EAF1F7832C75266442C96E1B70)
Complete name : Doubles.Vies.2018.FRENCH.1080p.BluRay.x264-THREESOME/Doubles.Vies.2018.FRENCH.1080p.BluRay.x264-THREESOME.mkv
Format : Matroska
Format version : Version 4
File size : 7.64 GiB
Duration : 1 h 47 min
Overall bit rate : 10.2 Mb/s
Encoded date : UTC 2019-10-02 13:32:30
Writing application : mkvmerge v37.0.0 ('Leave It') 64-bit
Writing library : libebml v1.3.9 + libmatroska v1.5.2

Video
ID : 1
Format : AVC
Format/Info : Advanced Video Codec
Format profile : [email protected]
Format settings : CABAC / 4 Ref Frames
Format settings, CABAC : Yes
Format settings, Reference fra : 4 frames
Codec ID : V_MPEG4/ISO/AVC
Duration : 1 h 47 min
Bit rate : 8 706 kb/s
Width : 1 920 pixels
Height : 1 040 pixels
Display aspect ratio : 1.85:1
Frame rate mode : Constant
Frame rate : 24.000 FPS
Color space : YUV
Chroma subsampling : 4:2:0
Bit depth : 8 bits
Scan type : Progressive
Bits/(Pixel*Frame) : 0.182
Stream size : 6.51 GiB (85%)
Title : Doubles.Vies.2018.FRENCH.1080p.BluRay.x264-THREESOME
Writing library : x264 core 157 r2969 d4099dd
Encoding settings : cabac=1 / ref=4 / deblock=1:0:0 / analyse=0x3:0x113 / me=umh / subme=8 / psy=1 / psy_rd=1.00:0.00 / mixed_ref=1 / me_range=16 / chroma_me=1 / trellis=2 / 8x8dct=1 / cqm=0 / deadzone=21,11 / fast_pskip=1 / chroma_qp_offset=-2 / threads=16 / lookahead_threads=2 / sliced_threads=0 / nr=0 / decimate=1 / interlaced=0 / bluray_compat=0 / constrained_intra=0 / bframes=3 / b_pyramid=2 / b_adapt=2 / b_bias=0 / direct=3 / weightb=1 / open_gop=0 / weightp=2 / keyint=240 / keyint_min=24 / scenecut=40 / intra_refresh=0 / rc_lookahead=50 / rc=2pass / mbtree=1 / bitrate=8706 / ratetol=1.0 / qcomp=0.60 / qpmin=0 / qpmax=69 / qpstep=4 / cplxblur=20.0 / qblur=0.5 / ip_ratio=1.40 / aq=1:1.00
Default : Yes
Forced : No

Audio
ID : 2
Format : DTS
Format/Info : Digital Theater Systems
Codec ID : A_DTS
Duration : 1 h 47 min
Bit rate mode : Constant
Bit rate : 1 509 kb/s
Channel(s) : 6 channels
Channel layout : C L R Ls Rs LFE
Sampling rate : 48.0 kHz
Frame rate : 93.750 FPS (512 SPF)
Bit depth : 24 bits
Compression mode : Lossy
Stream size : 1.13 GiB (15%)
Title : French
Language : French
Default : Yes
Forced : No

Menu
00:00:00.000 : :Capítulo 01
00:09:57.750 : :Capítulo 02
00:18:52.125 : :Capítulo 03
00:25:58.875 : :Capítulo 04
00:35:16.333 : :Capítulo 05
00:45:21.875 : :Capítulo 06
00:55:13.042 : :Capítulo 07
01:03:02.458 : :Capítulo 08
01:11:11.542 : :Capítulo 09
01:20:25.958 : :Capítulo 10
01:29:51.458 : :Capítulo 11
01:37:41.250 : :Capítulo 12
01:43:53.625 : :Capítulo 13

Subtitulos

Grupo: EXTREME
Versión: WEB H.264 1080p AC3
Tamaño: 4.2 GB
General
Unique ID : 175267981916874605020872461776871380987 (0x83DB62ADF075503CC5CB6D40507657FB)
Complete name : Doubles.Vies.2018.FRENCH.1080p.WEB.H264-EXTREME.mkv
Format : Matroska
Format version : Version 4
File size : 4.21 GiB
Duration : 1 h 46 min
Overall bit rate : 5 649 kb/s
Encoded date : UTC 2019-05-16 01:52:09
Writing application : mkvmerge v33.0.0 ('A Little Bit of Madness') 64-bit
Writing library : libebml v1.3.7 + libmatroska v1.5.0

Video
ID : 2
Format : AVC
Format/Info : Advanced Video Codec
Format profile : [email protected]
Format settings : CABAC / 4 Ref Frames
Format settings, CABAC : Yes
Format settings, Reference frames : 4 frames
Codec ID : V_MPEG4/ISO/AVC
Duration : 1 h 46 min
Bit rate : 5 263 kb/s
Width : 1 912 pixels
Height : 1 032 pixels
Display aspect ratio : 1.85:1
Frame rate mode : Constant
Frame rate : 24.000 FPS
Color space : YUV
Chroma subsampling : 4:2:0
Bit depth : 8 bits
Scan type : Progressive
Bits/(Pixel*Frame) : 0.111
Stream size : 3.92 GiB (93%)
Language : English
Default : Yes
Forced : No
Color range : Limited
Color primaries : BT.709
Transfer characteristics : BT.709
Matrix coefficients : BT.709

Audio
ID : 1
Format : AC-3
Format/Info : Audio Coding 3
Commercial name : Dolby Digital
Codec ID : A_AC3
Duration : 1 h 46 min
Bit rate mode : Constant
Bit rate : 384 kb/s
Channel(s) : 6 channels
Channel layout : L R C LFE Ls Rs
Sampling rate : 48.0 kHz
Frame rate : 31.250 FPS (1536 SPF)
Bit depth : 16 bits
Compression mode : Lossy
Delay relative to video : -42 ms
Stream size : 293 MiB (7%)
Language : French
Service kind : Complete Main
Default : Yes
Forced : No

Menu
00:00:00.000 : en:Chapitre 01
00:10:00.000 : en:Chapitre 02
00:20:00.000 : en:Chapitre 03
00:30:00.000 : en:Chapitre 04
00:40:00.000 : en:Chapitre 05
00:50:00.000 : en:Chapitre 06
01:00:00.000 : en:Chapitre 07
01:10:00.000 : en:Chapitre 08
01:20:00.000 : en:Chapitre 09
01:30:00.000 : en:Chapitre 10
Trailer