71
PUNTOS
Calificar
CALIFICA
Calificar
Califica y/o escribe un comentario sobre la película.
Comentarios en el foroFORO

Vice (2018)

Explora la historia real sobre cómo Dick Cheney (Christian Bale), un callado burócrata de Washington, acabó convirtiéndose en el hombre más poderoso del mundo como vicepresidente de los Estados Unidos durante el mandato de George W. Bush, con consecuencias en su país y el resto del mundo que aún se dejan sentir hoy en día.
Director Adam McKay
Actores Christian Bale, Amy Adams, Steve Carell, Sam Rockwell
Duración 132 min
Streaming (Servicio externo)
Grupo: Hive-CM8
Versión: DVDSCR XviD AC3
Tamaño: 1.4 GB
Vice.2018.DVDScr.Xvid.AC3.HQ.Hive-CM8

Thx Hive

CM8 Doing It Right The First Time

Source: DVDScr

Notes:

Gross is not picking up as awaited and peeps are already unhappy, not our fault,we cant wait forever.

Normally around this time we would have done cpl more by now, but it doesnt look like its happening this year
Its quite sad,
if nobody shares and everyone is piling them up at home on the bookshelf all is lost.

A lot of people will be sad with us.
We cant share what we dont have, a lot of people promised but never delivered.

Maybe just maybe someone will come forward to help everyone.
This is the last callup for help, if you can help and have acc to disc or files now is the chance.

Still no word from my friend on the street, sadly
[email protected]

Video
ID : 0
Format : MPEG-4 Visual
Format profile : Advanced [email protected]
Format settings : BVOP2 / QPel
Format settings, BVOP : 2
Format settings, QPel : Yes
Format settings, GMC : No warppoints
Format settings, Matrix : Default (H.263)
Muxing mode : Packed bitstream
Codec ID : XVID
Codec ID/Hint : XviD
Duration : 2 h 11 min
Bit rate : 1 306 kb/s
Width : 720 pixels
Height : 304 pixels
Display aspect ratio : 2.35:1
Frame rate : 29.970 (30000/1001) FPS
Color space : YUV
Chroma subsampling : 4:2:0
Bit depth : 8 bits
Scan type : Progressive
Compression mode : Lossy
Bits/(Pixel*Frame) : 0.199
Stream size : 1.20 GiB (83%)
Writing library : XviD 1.2.1 (UTC 2008-12-04)

Audio
ID : 1
Format : AC-3
Format/Info : Audio Coding 3
Commercial name : Dolby Digital
Codec ID : 2000
Duration : 2 h 11 min
Bit rate mode : Constant
Bit rate : 256 kb/s
Channel(s) : 2 channels
Channel layout : L R
Sampling rate : 48.0 kHz
Frame rate : 31.250 FPS (1536 SPF)
Bit depth : 16 bits
Compression mode : Lossy
Stream size : 241 MiB (16%)
Alignment : Split accross interleaves
Interleave, duration : 33 ms (1.00 video frame)
Interleave, preload duration : 500 ms
Service kind : Complete Main
Trailer