80
PUNTOS
Calificar
CALIFICA
Calificar
Califica y/o escribe un comentario sobre la película.
Comentarios en el foroFORO

The Favourite (2018)

Principios del siglo XVIII. Inglaterra está en guerra con los franceses. Una reina debilitada, Anne (Olivia Colman), ocupa el trono, mientras que su amiga Lady Sarah (Rachel Weisz) gobierna el país en su lugar, debido al precario estado de salud y al carácter inestable de la monarca. Cuando una nueva sirvienta aparece, Abigail (Emma Stone), su encanto seduce a Sarah. Sarah ayuda a Abigail y ésta ve una oportunidad para regresar a sus raíces aristocráticas. Como la política ocupa gran parte del tiempo de Sarah, Abigail empieza a acompañar con más frecuencia a la Reina. Desarrollarán una amistad que Abigail aprovechará para saciar sus ambiciones.
Director Yorgos Lanthimos
Actores Olivia Colman, Emma Stone, Rachel Weisz, Nicholas Hoult
Duración 119 min
Streaming (Servicio externo)
Grupo: Hive-CM8
Versión: DVDSCR XviD AC3
Tamaño: 1.3 GB
The.Favorite.2018.DVDScr.Xvid.AC3.HQ.Hive-CM8

Thx Hive

CM8 Doing It Right The First Time

Source: DVDScr

Notes:

Here is the happy new years rls!!

It just made the budget so happy to share.

Still looking for the right persons, need 2 titles to get 2 others.
Looking for mortal engines - the mule - vox lux.

Its pretty easy, it only works together, talk to us, security first,
we remove watermarks and tracers btw. cause we care.

My friend on the street, where are you? lol
[email protected]

Video
ID : 0
Format : MPEG-4 Visual
Format profile : Advanced [email protected]
Format settings : BVOP2 / QPel
Format settings, BVOP : 2
Format settings, QPel : Yes
Format settings, GMC : No warppoints
Format settings, Matrix : Default (H.263)
Muxing mode : Packed bitstream
Codec ID : XVID
Codec ID/Hint : XviD
Duration : 1 h 59 min
Bit rate : 1 299 kb/s
Width : 720 pixels
Height : 386 pixels
Display aspect ratio : 1.85:1
Frame rate : 23.976 (24000/1001) FPS
Color space : YUV
Chroma subsampling : 4:2:0
Bit depth : 8 bits
Scan type : Progressive
Compression mode : Lossy
Bits/(Pixel*Frame) : 0.195
Stream size : 1.08 GiB (83%)
Writing library : XviD 1.2.1 (UTC 2008-12-04)

Audio
ID : 1
Format : AC-3
Format/Info : Audio Coding 3
Commercial name : Dolby Digital
Codec ID : 2000
Duration : 1 h 59 min
Bit rate mode : Constant
Bit rate : 256 kb/s
Channel(s) : 2 channels
Channel layout : L R
Sampling rate : 48.0 kHz
Frame rate : 31.250 FPS (1536 SPF)
Bit depth : 16 bits
Compression mode : Lossy
Delay relative to video : 2 ms
Stream size : 219 MiB (16%)
Alignment : Split accross interleaves
Interleave, duration : 42 ms (1.00 video frame)
Interleave, preload duration : 500 ms
Service kind : Complete Main
Trailer