83
PUNTOS
Calificar
CALIFICA
Calificar
Califica y/o escribe un comentario sobre la película.
Comentarios en el foroFORO

Green Book (2018)

Años 60. Cuando Tony Lip (Viggo Mortensen), un rudo italoamericano del Bronx, es contratado como chófer del virtuoso pianista negro Don Shirley (Mahershala Ali), durante una gira de conciertos por el Sur de Estados Unidos, deberá confiar en "El libro verde", una guía de los pocos establecimientos seguros para los afroamericanos, para encontrar alojamiento. Son dos personas que tendrán que hacer frente al racismo y los prejuicios, pero a las que la bondad y el sentido del humor unirán, obligándoles a dejar de lado las diferencias para sobrevivir y prosperar en el viaje de su vida.
Director Peter Farrelly
Actores Viggo Mortensen, Mahershala Ali, Linda Cardellini, Sebastian Maniscalco
Duración 130 min
Streaming (Servicio externo)
Grupo: Hive-CM8
Versión: DVDSCR XviD AC3
Tamaño: 1.4 GB
Green.Book.2018.DVDScr.Xvid.AC3.HQ.Hive-CM8

Thx Hive

CM8 Doing It Right The First Time 

Source: DVDScr

Notes:
btw merry christmas and a happy new year!!
well, one year has passed and its that time of the year
that everyone is waiting for.
SCREENER Time.
As usual we love to share with friends all over the world.
This first one already played in the budget,
so this is the best title to pick for now.

Since we lost our site/mail with no backup
and with it all contacts gone,
its quite complicated to get things going this year.
We want to get things back as they were, but it will take time.

The whole system only works if people are helping us,
it doesnt work without you.
We need your help this year more than ever,
so plz come forward if you have a scr or access to it.
We like to have all scr-titles if possible,
but it has to be secure for everyone,
we want to get them out safely as every year.
every title counts towards the goal. thx

Especially i am looking for my friend on the street, msg us via mail plz
[email protected]

Video
ID : 0
Format : MPEG-4 Visual
Format profile : Advanced [email protected]
Format settings : BVOP2 / QPel
Format settings, BVOP : 2
Format settings, QPel : Yes
Format settings, GMC : No warppoints
Format settings, Matrix : Default (H.263)
Muxing mode : Packed bitstream
Codec ID : XVID
Codec ID/Hint : XviD
Duration : 2 h 10 min
Bit rate : 1 307 kb/s
Width : 720 pixels
Height : 368 pixels
Display aspect ratio : 1.957
Frame rate : 23.976 (24000/1001) FPS
Color space : YUV
Chroma subsampling : 4:2:0
Bit depth : 8 bits
Scan type : Progressive
Compression mode : Lossy
Bits/(Pixel*Frame) : 0.206
Stream size : 1.19 GiB (83%)
Writing library : XviD 1.2.1 (UTC 2008-12-04)

Audio
ID : 1
Format : AC-3
Format/Info : Audio Coding 3
Commercial name : Dolby Digital
Codec ID : 2000
Duration : 2 h 10 min
Bit rate mode : Constant
Bit rate : 256 kb/s
Channel(s) : 2 channels
Channel layout : L R
Sampling rate : 48.0 kHz
Frame rate : 31.250 FPS (1536 SPF)
Bit depth : 16 bits
Compression mode : Lossy
Stream size : 238 MiB (16%)
Alignment : Split accross interleaves
Interleave, duration : 42 ms (1.00 video frame)
Interleave, preload duration : 500 ms
Service kind : Complete Main
Trailer