59
PUNTOS
Calificar
CALIFICA
Calificar
Califica y/o escribe un comentario sobre la película.
Comentarios en el foroFORO

Extinction (2018)

Un padre tiene un recurrente sueño en el que pierde a su familia. Su pesadilla se hace realidad cuando el planeta es invadido por una fuerza brutal y destructiva. El hombre y su mujer deberán entonces reunir todas sus fuerzas para intentar salvar a su familia.
Director Ben Young
Actores Lizzy Caplan, Michael Peña, Mike Colter
Duración 95 min
País USA
Streaming (Servicio externo)
Grupo: STRiFE
Versión: WEBRip x264 AAC
Tamaño: 425 MB
Extinction.2018.WEBRip.x264-STRiFE

Video
ID : 1
Format : AVC
Format/Info : Advanced Video Codec
Format profile : [email protected]
Format settings : CABAC / 5 Ref Frames
Format settings, CABAC : Yes
Format settings, RefFrames : 5 frames
Codec ID : V_MPEG4/ISO/AVC
Duration : 1 h 35 min
Bit rate : 510 kb/s
Width : 720 pixels
Height : 302 pixels
Display aspect ratio : 2.40:1
Frame rate mode : Constant
Frame rate : 23.976 (24000/1001) FPS
Color space : YUV
Chroma subsampling : 4:2:0
Bit depth : 8 bits
Scan type : Progressive
Bits/(Pixel*Frame) : 0.098
Stream size : 348 MiB (80%)
Writing library : x264 core 155 r2901 7d0ff22
Encoding settings : cabac=1 / ref=5 / deblock=1:-3:-3 / analyse=0x3:0x113 / me=umh / subme=8 / psy=1 / psy_rd=1.00:0.15 / mixed_ref=1 / me_range=16 / chroma_me=1 / trellis=2 / 8x8dct=1 / cqm=0 / deadzone=21,11 / fast_pskip=0 / chroma_qp_offset=-2 / threads=9 / lookahead_threads=1 / sliced_threads=0 / nr=0 / decimate=1 / interlaced=0 / bluray_compat=0 / constrained_intra=0 / bframes=3 / b_pyramid=2 / b_adapt=2 / b_bias=0 / direct=3 / weightb=1 / open_gop=0 / weightp=2 / keyint=240 / keyint_min=23 / scenecut=40 / intra_refresh=0 / rc_lookahead=50 / rc=crf / mbtree=1 / crf=19.0 / qcomp=0.60 / qpmin=0 / qpmax=69 / qpstep=4 / vbv_maxrate=17500 / vbv_bufsize=17500 / crf_max=0.0 / nal_hrd=none / filler=0 / ip_ratio=1.40 / aq=3:0.80
Language : English
Default : Yes
Forced : No
Color range : Limited
Matrix coefficients : BT.709

Audio
ID : 2
Format : AAC
Format/Info : Advanced Audio Codec
Format profile : LC
Codec ID : A_AAC-2
Duration : 1 h 35 min
Bit rate : 122 kb/s
Channel(s) : 2 channels
Channel positions : Front: L R
Sampling rate : 48.0 kHz
Frame rate : 46.875 FPS (1024 SPF)
Compression mode : Lossy
Delay relative to video : 9 ms
Stream size : 83.3 MiB (19%)
Language : English
Default : Yes
Forced : No

Text #1
ID : 3
Format : UTF-8
Codec ID : S_TEXT/UTF8
Codec ID/Info : UTF-8 Plain Text
Duration : 1 h 32 min
Bit rate : 44 b/s
Count of elements : 1153
Stream size : 30.5 KiB (0%)
Language : English
Default : No
Forced : No

Text #2
ID : 4
Format : UTF-8
Codec ID : S_TEXT/UTF8
Codec ID/Info : UTF-8 Plain Text
Duration : 1 h 33 min
Bit rate : 31 b/s
Count of elements : 887
Stream size : 21.6 KiB (0%)
Title : European
Language : Spanish
Default : No
Forced : No

Text #3
ID : 5
Format : UTF-8
Codec ID : S_TEXT/UTF8
Codec ID/Info : UTF-8 Plain Text
Duration : 1 h 33 min
Bit rate : 37 b/s
Count of elements : 878
Stream size : 25.8 KiB (0%)
Language : French
Default : No
Forced : No

Text #4
ID : 6
Format : UTF-8
Codec ID : S_TEXT/UTF8
Codec ID/Info : UTF-8 Plain Text
Duration : 1 h 33 min
Bit rate : 32 b/s
Count of elements : 877
Stream size : 22.0 KiB (0%)
Language : Polish
Default : No
Forced : No

Text #5
ID : 7
Format : UTF-8
Codec ID : S_TEXT/UTF8
Codec ID/Info : UTF-8 Plain Text
Duration : 1 h 33 min
Bit rate : 31 b/s
Count of elements : 907
Stream size : 21.4 KiB (0%)
Language : Portuguese
Default : No
Forced : No

encode for crop

Subtitulos

Grupo: DEFLATE
Versión: WEBRip x264 720p PROPER AC3
Tamaño: 2.5 GB
Extinction.2018.PROPER.720p.WEBRip.X264-DEFLATE

Release Date : 2018-07-28
URL          : https://www.imdb.com/title/tt3201640

Duration     : 01:34:51.712000
Video        : X264 (CRF 18.0, 8 bit, 4:2:0)
Resolution   : 1280x534 (2.397:1 / 640:267) @ 24,000/1,001 fps
Audio        : AC3+ @ 640 kb/s (5.1)
Language     : English
Subtitles    : English, English (SDH), Arabic, Chinese (Simplified), Chinese
(Traditional), Danish, Dutch, Finnish, French, German, Greek, Hebrew,
Indonesian, Italian, Japanese, Korean, Norwegian, Polish, Portuguese,
Portuguese (Brazilian), Romanian, Russian, Spanish, Spanish, Swedish,
Thai, Turkish
Size         : 2,590.800 MB (2,716,650,899 bytes)
Notes        : Other group didn't use the highest available audio

Subtitulos

Grupo: DEFLATE
Versión: WEBRip x264 1080p AC3
Tamaño: 7.9 GB
Extinction.2018.1080p.WEBRip.X264-DEFLATE

Release Date : 2018-07-28
URL          : https://www.imdb.com/title/tt3201640

Duration     : 01:34:51.712000
Video        : X264 (CRF 17.0, 8 bit, 4:2:0)
Resolution   : 1920x802 (2.394:1 / 960:401) @ 24,000/1,001 fps
Audio        : AC3+ @ 640 kb/s (5.1)
Language     : English
Subtitles    : English, English (SDH), Arabic, Chinese (Simplified), Chinese
(Traditional), Danish, Dutch, Finnish, French, German, Greek, Hebrew,
Indonesian, Italian, Japanese, Korean, Norwegian, Polish, Portuguese,
Portuguese (Brazilian), Romanian, Russian, Spanish, Spanish, Swedish,
Thai, Turkish
Size         : 8,119.877 MB (8,514,308,589 bytes)

Subtitulos

Trailer