73
PUNTOS
Calificar
CALIFICA
Calificar
Califica y/o escribe un comentario sobre la película.
Comentarios en el foroFORO

Câini (2016)

Roman, un joven de ciudad, viaja a un pueblo aislado de la región de Dobrogea, cerca de la frontera con Ucrania, para vender el terreno que le ha dejado en herencia su abuelo, recientemente fallecido. Una vez allí Roman descubre que aquel era un poderoso mafioso local, y que la tierra que pretende vender está siendo usada por unos criminales para sus trapicheos.
Director Bogdan Mirica
Actores Dragos Bucur, Gheorghe Visu, Vlad Ivanov
Duración 104 min
País Romania, France, Bulgaria, Qatar
Streaming (Servicio externo)
Grupo: GBL
Versión: HDTV x264 720p
Tamaño: 1.7 GB
General
Format : Matroska
Format version : Version 4 / Version 2
File size : 1.73 GiB
Duration : 1h 39mn
Overall bit rate : 2 490 Kbps
Encoded date : UTC 2017-02-13 17:56:54
Writing application : mkvmerge v9.8.0 ('Kuglblids') 64bit
Writing library : libebml v1.3.4 + libmatroska v1.4.5

Video
ID : 2
Format : AVC
Format/Info : Advanced Video Codec
Format profile : [email protected]
Format settings, CABAC : Yes
Format settings, ReFrames : 8 frames
Codec ID : V_MPEG4/ISO/AVC
Duration : 1h 39mn
Bit rate : 2 105 Kbps
Width : 1 280 pixels
Height : 536 pixels
Display aspect ratio : 2.40:1
Frame rate mode : Constant
Frame rate : 25.000 fps
Color space : YUV
Chroma subsampling : 4:2:0
Bit depth : 8 bits
Scan type : Progressive
Bits/(Pixel*Frame) : 0.123
Stream size : 1.47 GiB (85%)
Writing library : x264 core 148 r2744 b97ae06
Encoding settings : cabac=1 / ref=8 / deblock=1:0:0 / analyse=0x3:0x133 / me=umh / subme=9 / psy=1 / psy_rd=1.00:0.00 / mixed_ref=1 / me_range=16 / chroma_me=1 / trellis=2 / 8x8dct=1 / cqm=0 / deadzone=21,11 / fast_pskip=1 / chroma_qp_offset=-2 / threads=6 / lookahead_threads=1 / sliced_threads=0 / nr=0 / decimate=1 / interlaced=0 / bluray_compat=0 / constrained_intra=0 / bframes=3 / b_pyramid=2 / b_adapt=2 / b_bias=0 / direct=3 / weightb=1 / open_gop=0 / weightp=2 / keyint=250 / keyint_min=25 / scenecut=40 / intra_refresh=0 / rc_lookahead=60 / rc=crf / mbtree=1 / crf=18.0 / qcomp=0.60 / qpmin=0 / qpmax=69 / qpstep=4 / ip_ratio=1.40 / aq=1:1.00
Language : English
Default : Yes
Forced : No

Audio
ID : 1
Format : AC-3
Format/Info : Audio Coding 3
Mode extension : CM (complete main)
Format settings, Endianness : Big
Codec ID : A_AC3
Duration : 1h 39mn
Bit rate mode : Constant
Bit rate : 384 Kbps
Channel(s) : 2 channels
Channel positions : Front: L R
Sampling rate : 48.0 KHz
Frame rate : 31.250 fps (1536 spf)
Compression mode : Lossy
Stream size : 274 MiB (15%)
Language : Romanian
Default : Yes
Forced : No

Subtitulos

Trailer