77
PUNTOS
Calificar
CALIFICA
Calificar
Califica y/o escribe un comentario sobre la película.
Comentarios en el foroFORO

Au revoir là-haut (2017)

Noviembre de 1919. Dos supervivientes de las trincheras, uno un magnífico ilustrador y el otro, un modesto contable, montan una estafa sobre los monumentos a los muertos de la guerra. En la Francia de los años veinte, el proyecto se convierte en algo tan peligroso como espectacular.
Director Albert Dupontel
Actores Nahuel Pérez Biscayart, Albert Dupontel, Laurent Lafitte
Duración 117 min
País France, Canada
Streaming (Servicio externo)
Grupo: AUREVOIRLAHAUT
Versión: BDRip x264 720p AC3
Tamaño: 4.4 GB
General
Unique ID : 192894476152960265020624168451966591877 (0x911E1FF11F5D0FAFA4A6DD8372E96385)
Complete name : au.revoir.la.haut.2017.french.720p.bluray.x264-aurevoirlahaut.mkv
Format : Matroska
Format version : Version 2
File size : 4.37 GiB
Duration : 1 h 56 min
Overall bit rate : 5 344 kb/s
Writing application : mkvmerge v6.6.0 ('The Edge Of The In Between') built on Dec 1 2013 17:55:00
Writing library : libebml v1.3.0 + libmatroska v1.4.1

Video
ID : 1
Format : AVC
Format/Info : Advanced Video Codec
Format profile : [email protected]
Format settings : CABAC / 5 Ref Frames
Format settings, CABAC : Yes
Format settings, RefFrames : 5 frames
Codec ID : V_MPEG4/ISO/AVC
Duration : 1 h 56 min
Bit rate : 4 705 kb/s
Width : 1 280 pixels
Height : 536 pixels
Display aspect ratio : 2.40:1
Frame rate mode : Constant
Frame rate : 24.000 FPS
Color space : YUV
Chroma subsampling : 4:2:0
Bit depth : 8 bits
Scan type : Progressive
Bits/(Pixel*Frame) : 0.286
Stream size : 3.76 GiB (86%)
Writing library : x264 core 152 r2851 ba24899
Encoding settings : cabac=1 / ref=5 / deblock=1:0:0 / analyse=0x3:0x113 / me=umh / subme=8 / psy=1 / psy_rd=1.00:0.00 / mixed_ref=1 / me_range=16 / chroma_me=1 / trellis=1 / 8x8dct=1 / cqm=0 / deadzone=21,11 / fast_pskip=1 / chroma_qp_offset=-2 / threads=12 / lookahead_threads=2 / sliced_threads=0 / nr=0 / decimate=1 / interlaced=0 / bluray_compat=0 / constrained_intra=0 / bframes=3 / b_pyramid=2 / b_adapt=2 / b_bias=0 / direct=3 / weightb=1 / open_gop=0 / weightp=2 / keyint=250 / keyint_min=24 / scenecut=40 / intra_refresh=0 / rc_lookahead=50 / rc=2pass / mbtree=1 / bitrate=4705 / ratetol=1.0 / qcomp=0.60 / qpmin=0 / qpmax=69 / qpstep=4 / cplxblur=20.0 / qblur=0.5 / ip_ratio=1.40 / aq=1:1.00
Language : English
Default : Yes
Forced : No

Audio
ID : 2
Format : AC-3
Format/Info : Audio Coding 3
Codec ID : A_AC3
Duration : 1 h 56 min
Bit rate mode : Constant
Bit rate : 640 kb/s
Channel(s) : 6 channels
Channel positions : Front: L C R, Side: L R, LFE
Sampling rate : 48.0 kHz
Frame rate : 31.250 FPS (1536 SPF)
Bit depth : 16 bits
Compression mode : Lossy
Stream size : 536 MiB (12%)
Title : French
Language : French
Service kind : Complete Main
Default : Yes
Forced : No

Text
ID : 3
Format : UTF-8
Codec ID : S_TEXT/UTF8
Codec ID/Info : UTF-8 Plain Text
Title : French Forced
Language : frf
Default : Yes
Forced : Yes

Menu
00:00:00.000 : en:00:00:00.000
00:09:51.917 : en:00:09:51.917
00:19:04.875 : en:00:19:04.875
00:28:15.292 : en:00:28:15.292
00:36:53.125 : en:00:36:53.125
00:47:04.500 : en:00:47:04.500
00:57:27.000 : en:00:57:27.000
01:06:40.792 : en:01:06:40.792
01:14:52.250 : en:01:14:52.250
01:23:42.292 : en:01:23:42.292
01:31:53.125 : en:01:31:53.125
01:42:48.167 : en:01:42:48.167

Subtitulos

Grupo: AUREVOIRLAHAUT
Versión: BDRip x264 1080p AC3
Tamaño: 7.6 GB
General
Unique ID : 0 (0x0)
Complete name : au.revoir.la.haut.2017.french.1080p.bluray.x264-aurevoirlahaut.mkv
Format : Matroska
Format version : Version 2
File size : 7.65 GiB
Duration : 1h 56mn
Overall bit rate : 9 358 Kbps
Writing application : mkvmerge v6.6.0 ('The Edge Of The In Between') built on Dec 1 2013 17:55:00
Writing library : libebml v1.3.0 + libmatroska v1.4.1

Video
ID : 1
Format : AVC
Format/Info : Advanced Video Codec
Format profile : [email protected]
Format settings, CABAC : Yes
Format settings, ReFrames : 5 frames
Codec ID : V_MPEG4/ISO/AVC
Duration : 1h 56mn
Bit rate : 8 721 Kbps
Width : 1 920 pixels
Height : 800 pixels
Display aspect ratio : 2.40:1
Frame rate mode : Constant
Frame rate : 24.000 fps
Color space : YUV
Chroma subsampling : 4:2:0
Bit depth : 8 bits
Scan type : Progressive
Bits/(Pixel*Frame) : 0.237
Stream size : 6.97 GiB (91%)
Writing library : x264 core 152 r2851 ba24899
Encoding settings : cabac=1 / ref=5 / deblock=1:0:0 / analyse=0x3:0x113 / me=umh / subme=8 / psy=1 / psy_rd=1.00:0.00 / mixed_ref=1 / me_range=16 / chroma_me=1 / trellis=1 / 8x8dct=1 / cqm=0 / deadzone=21,11 / fast_pskip=1 / chroma_qp_offset=-2 / threads=12 / lookahead_threads=2 / sliced_threads=0 / nr=0 / decimate=1 / interlaced=0 / bluray_compat=0 / constrained_intra=0 / bframes=3 / b_pyramid=2 / b_adapt=2 / b_bias=0 / direct=3 / weightb=1 / open_gop=0 / weightp=2 / keyint=250 / keyint_min=24 / scenecut=40 / intra_refresh=0 / rc_lookahead=50 / rc=2pass / mbtree=1 / bitrate=8721 / ratetol=1.0 / qcomp=0.60 / qpmin=0 / qpmax=69 / qpstep=4 / cplxblur=20.0 / qblur=0.5 / ip_ratio=1.40 / aq=1:1.00
Language : English
Default : Yes
Forced : No

Audio
ID : 2
Format : AC-3
Format/Info : Audio Coding 3
Mode extension : CM (complete main)
Format settings, Endianness : Big
Codec ID : A_AC3
Duration : 1h 56mn
Bit rate mode : Constant
Bit rate : 640 Kbps
Channel(s) : 6 channels
Channel positions : Front: L C R, Side: L R, LFE
Sampling rate : 48.0 KHz
Bit depth : 16 bits
Compression mode : Lossy
Stream size : 536 MiB (7%)
Title : French
Language : French
Default : Yes
Forced : No

Text
ID : 3
Format : UTF-8
Codec ID : S_TEXT/UTF8
Codec ID/Info : UTF-8 Plain Text
Title : French Forced
Language : frf
Default : Yes
Forced : Yes

Menu
00:00:00.000 : en:00:00:00.000
00:09:51.917 : en:00:09:51.917
00:19:04.875 : en:00:19:04.875
00:28:15.292 : en:00:28:15.292
00:36:53.125 : en:00:36:53.125
00:47:04.500 : en:00:47:04.500
00:57:27.000 : en:00:57:27.000
01:06:40.792 : en:01:06:40.792
01:14:52.250 : en:01:14:52.250
01:23:42.292 : en:01:23:42.292
01:31:53.125 : en:01:31:53.125
01:42:48.167 : en:01:42:48.167

Subtitulos

Trailer