80
PUNTOS
Calificar
CALIFICA
Calificar
Califica y/o escribe un comentario sobre la película.
Comentarios en el foroFORO

Dogville (2003)

Grace llega al remoto pueblo de Dogville huyendo de una banda de gángsters. Persuadidos por las palabras de Tom, que se ha erigido en portavoz de la comunidad, los vecinos se avienen a ocultarla. Grace, a cambio, trabaja para ellos. Sin embargo, cuando Dogville sea sometido a una intensa vigilancia policial para dar con la fugitiva, sus habitantes exigirán a Grace otros servicios que les compensen del peligro que corren al darle cobijo. Grace aprenderá, de un modo brutal, que en ese pueblo la bondad es algo muy relativo. Pero ella guarda un secreto que no quiere desvelar.
Director Lars von Trier
Actores Nicole Kidman, Paul Bettany, Lauren Bacall
Duración 178 min
País Denmark | Sweden | UK | France | Germany | Netherlands | Norway | Finland
Streaming (Servicio externo)
Grupo: RiVER
Versión: DVDRip XviD FS
Tamaño: 1.4 GB
General
Complete name                    : E:\Emule\Dogville.(2003).CD1.FS.DVDRiP.XViD-RiVER.[sharethefiles.com].avi
Format                           : AVI
Format/Info                      : Audio Video Interleave
File size                        : 700 MiB
Duration                         : 1h 17mn
Overall bit rate                 : 1 267 Kbps
Writing application              : VirtualDubMod 1.5.1.1a (build 1639/release)
Writing library                  : VirtualDubMod build 1639/release

Video
Format                           : MPEG-4 Visual
Format profile                   : [email protected]
Format settings, BVOP            : Yes
Format settings, QPel            : No
Format settings, GMC             : No warppoints
Format settings, Matrix          : Default
Codec ID                         : XVID
Codec ID/Hint                    : XviD
Duration                         : 1h 17mn
Bit rate                         : 1 122 Kbps
Width                            : 576 pixels
Height                           : 432 pixels
Display aspect ratio             : 4/3
Frame rate                       : 25.000 fps
Resolution                       : 24 bits
Colorimetry                      : 4:2:0
Scan type                        : Progressive
Bits/(Pixel*Frame)               : 0.180
Stream size                      : 619 MiB (88%)
Writing library                  : XviD 0.0.09 (UTC 2003-03-25)

Audio
Format                           : MPEG Audio
Format version                   : Version 1
Format profile                   : Layer 3
Codec ID                         : 55
Codec ID/Hint                    : MP3
Duration                         : 1h 17mn
Bit rate mode                    : Variable
Bit rate                         : 133 Kbps
Nominal bit rate                 : 128 Kbps
Channel(s)                       : 2 channels
Sampling rate                    : 48.0 KHz
Resolution                       : 16 bits
Stream size                      : 73.4 MiB (10%)
Alignment                        : Aligned on interleaves
Interleave, duration             : 24 ms (0.60 video frame)
Interleave, preload duration     : 159 ms
Writing library                  : LAME3.93
Encoding settings                : ABR
General
Complete name                    : E:\Emule\Dogville.(2003).CD2.FS.DVDRiP.XViD-RiVER.[sharethefiles.com].avi
Format                           : AVI
Format/Info                      : Audio Video Interleave
File size                        : 694 MiB
Duration                         : 1h 33mn
Overall bit rate                 : 1 043 Kbps
Writing application              : VirtualDubMod 1.5.1.1a (build 1639/release)
Writing library                  : VirtualDubMod build 1639/release

Video
Format                           : MPEG-4 Visual
Format profile                   : [email protected]
Format settings, BVOP            : Yes
Format settings, QPel            : No
Format settings, GMC             : No warppoints
Format settings, Matrix          : Default
Codec ID                         : XVID
Codec ID/Hint                    : XviD
Duration                         : 1h 33mn
Bit rate                         : 896 Kbps
Width                            : 576 pixels
Height                           : 432 pixels
Display aspect ratio             : 4/3
Frame rate                       : 25.000 fps
Resolution                       : 24 bits
Colorimetry                      : 4:2:0
Scan type                        : Progressive
Bits/(Pixel*Frame)               : 0.144
Stream size                      : 597 MiB (86%)
Writing library                  : XviD 0.0.09 (UTC 2003-03-25)

Audio
Format                           : MPEG Audio
Format version                   : Version 1
Format profile                   : Layer 3
Codec ID                         : 55
Codec ID/Hint                    : MP3
Duration                         : 1h 33mn
Bit rate mode                    : Variable
Bit rate                         : 133 Kbps
Channel(s)                       : 2 channels
Sampling rate                    : 48.0 KHz
Resolution                       : 16 bits
Stream size                      : 88.8 MiB (13%)
Alignment                        : Aligned on interleaves
Interleave, duration             : 24 ms (0.60 video frame)
Interleave, preload duration     : 475 ms

Subtitulos

Grupo: AFO
Versión: DVDRip XviD PROPER LIMITED
Tamaño: 1.4 GB
ÛÛ²²       Title:           Dogville                    ÛÛ²²
        ÛÛÛ²²                                                   ÛÛÛ²²
        ÛÛÛ²²       DivX Date:       13.12.2003                 ÛÛÛ²²
        ÛÛÛ²²       DVD Date:        N/A                        ÛÛÛ²²
        ÛÛÛ²²       US Theater Date: 19.05.2003 Cannes Festival ÛÛÛ²²
        ÛÛÛ²²                        29.08.2003 Telluride Fest. ÛÛÛ²²
        ÛÛÛ²²       Genre:           Drama                      ÛÛÛ²²
        ÛÛÛ²²       Runtime:         177                        ÛÛÛ²²
        ÛÛÛ²²       Rating:          8.3/10 (2,514 votes)       ÛÛÛ²²
        ÛÛÛ²²                                                   ÛÛÛ²²
        ÛÛÛ²²       Video:           XViD 969 kbps              ÛÛÛ²
      ÛÛÛ²²         Audio:           mp3 VBR 128-192             ÛÛÛÛ²
     ÛÛÛ²²          AR:              2.35                          ÛÛÛ²²
    ÛÛÛ²²           Resolution:      640x272                        ÛÛÛ²²
    ÛÛ²²            Size:            CD1: 49x15                      ÛÛ²²
    ÛÛ²²      ÜÜÜ                    CD2: 49x15              ÜÜ      ÛÛ²²

Subtitulos