63
PUNTOS
Calificar
CALIFICA
Calificar
Califica y/o escribe un comentario sobre la película.
Comentarios en el foroFORO

The Outsider (2018)

Un soldado estadounidense encarcelado en el Japón de la posguerra entra en el oscuro mundo de la yakuza y adopta su estilo de vida como pago por su libertad.
Director Martin Zandvliet
Actores Jared Leto, Tadanobu Asano, Kippei Shîna
País USA
Streaming (Servicio externo)
Grupo: METCON
Versión: WEBRip x264 720p AC3
Tamaño: 1.4 GB
The.Outsider.2018.720p.WEBRip.x264-METCON

DATE.......:        2018-03-09
URL........:        http://www.imdb.com/title/tt2011311/
SIZE.......:        1504MB
DUR........:        02:00:58
CRF........:        18.0
VIDEO......:        1352kbps
RESOLUTION.:        1280x536
AUDIO......:        AC3 / 384kbps / 5.1
SUBS.......:        Swedish, English, Forced, Norwegian, German, Finnish
NOTES......:        Used 1080p as source for better bitrate

Subtitulos

Grupo: STRiFE
Versión: WEB x264 1080p INTERNAL AC3
Tamaño: 2.4 GB
The.Outsider.2018.iNTERNAL.1080p.WEB.x264-STRiFE

Video
ID                                       : 1
Format                                   : AVC
Format/Info                              : Advanced Video Codec
Format profile                           : [email protected]
Format settings                          : CABAC / 3 Ref Frames
Format settings, CABAC                   : Yes
Format settings, ReFrames                : 3 frames
Codec ID                                 : V_MPEG4/ISO/AVC
Duration                                 : 2 h 0 min
Bit rate mode                            : Variable
Bit rate                                 : 2 490 kb/s
Maximum bit rate                         : 3 735 kb/s
Width                                    : 1 920 pixels
Height                                   : 1 080 pixels
Display aspect ratio                     : 16:9
Frame rate mode                          : Constant
Frame rate                               : 24.000 FPS
Color space                              : YUV
Chroma subsampling                       : 4:2:0
Bit depth                                : 8 bits
Scan type                                : Progressive
Bits/(Pixel*Frame)                       : 0.050
Stream size                              : 2.10 GiB (87%)
Writing library                          : x264 core 148
Encoding settings                        : cabac=1 / ref=3 / deblock=1:0:0 / analyse=0x1:0x111 / me=umh / subme=10 / psy=1 / psy_rd=1.00:0.00 / mixed_ref=1 / me_range=24 / chroma_me=1 / trellis=2 / 8x8dct=0 / cqm=0 / deadzone=21,11 / fast_pskip=1 / chroma_qp_offset=-2 / threads=8 / lookahead_threads=1 / sliced_threads=0 / nr=0 / decimate=1 / interlaced=0 / bluray_compat=0 / stitchable=1 / constrained_intra=0 / bframes=2 / b_pyramid=0 / b_adapt=2 / b_bias=0 / direct=3 / weightb=1 / open_gop=0 / weightp=2 / keyint=48 / keyint_min=25 / scenecut=0 / intra_refresh=0 / rc_lookahead=48 / rc=2pass / mbtree=1 / bitrate=2490 / ratetol=1.0 / qcomp=0.50 / qpmin=6 / qpmax=51 / qpstep=4 / cplxblur=20.0 / qblur=0.5 / vbv_maxrate=3735 / vbv_bufsize=4980 / nal_hrd=vbr / filler=0 / ip_ratio=1.40 / aq=1:1.00
Default                                  : Yes
Forced                                   : No

Audio
ID                                       : 2
Format                                   : AC-3
Format/Info                              : Audio Coding 3
Codec ID                                 : A_AC3
Duration                                 : 2 h 0 min
Bit rate mode                            : Constant
Bit rate                                 : 384 kb/s
Channel(s)                               : 6 channels
Channel positions                        : Front: L C R, Side: L R, LFE
Sampling rate                            : 48.0 kHz
Frame rate                               : 31.250 FPS (1536 SPF)
Bit depth                                : 16 bits
Compression mode                         : Lossy
Stream size                              : 332 MiB (13%)
Language                                 : English
Service kind                             : Complete Main
Default                                  : Yes
Forced                                   : No

Text #1
ID                                       : 3
Format                                   : UTF-8
Codec ID                                 : S_TEXT/UTF8
Codec ID/Info                            : UTF-8 Plain Text
Duration                                 : 1 h 50 min
Bit rate                                 : 14 b/s
Count of elements                        : 460
Stream size                              : 11.5 KiB (0%)
Title                                    : Forced
Language                                 : English
Default                                  : No
Forced                                   : Yes

Text #2
ID                                       : 4
Format                                   : UTF-8
Codec ID                                 : S_TEXT/UTF8
Codec ID/Info                            : UTF-8 Plain Text
Duration                                 : 1 h 52 min
Bit rate                                 : 29 b/s
Count of elements                        : 943
Stream size                              : 24.4 KiB (0%)
Language                                 : English
Default                                  : No
Forced                                   : No

Text #3
ID                                       : 5
Format                                   : UTF-8
Codec ID                                 : S_TEXT/UTF8
Codec ID/Info                            : UTF-8 Plain Text
Duration                                 : 1 h 53 min
Bit rate                                 : 21 b/s
Count of elements                        : 784
Stream size                              : 17.8 KiB (0%)
Title                                    : Brazilian
Language                                 : Portuguese
Default                                  : No
Forced                                   : No

Text #4
ID                                       : 6
Format                                   : UTF-8
Codec ID                                 : S_TEXT/UTF8
Codec ID/Info                            : UTF-8 Plain Text
Duration                                 : 1 h 59 min
Bit rate                                 : 20 b/s
Count of elements                        : 769
Stream size                              : 17.5 KiB (0%)
Language                                 : Dutch
Default                                  : No
Forced                                   : No

Text #5
ID                                       : 7
Format                                   : UTF-8
Codec ID                                 : S_TEXT/UTF8
Codec ID/Info                            : UTF-8 Plain Text
Duration                                 : 1 h 59 min
Bit rate                                 : 21 b/s
Count of elements                        : 777
Stream size                              : 19.0 KiB (0%)
Language                                 : French
Default                                  : No
Forced                                   : No

Text #6
ID                                       : 8
Format                                   : UTF-8
Codec ID                                 : S_TEXT/UTF8
Codec ID/Info                            : UTF-8 Plain Text
Duration                                 : 1 h 59 min
Bit rate                                 : 23 b/s
Count of elements                        : 770
Stream size                              : 20.6 KiB (0%)
Language                                 : German
Default                                  : No
Forced                                   : No

Subtitulos

Trailer