83
PUNTOS
Calificar
CALIFICA
Calificar
Califica y/o escribe un comentario sobre la película.
Comentarios en el foroFORO

Judgment at Nuremberg (1961)

En 1948, tres años después del final de la Segunda Guerra Mundial (1939-1945), cuatro jueces, cómplices de la política nazi de esterilización y limpieza étnica, van a ser juzgados en Nuremberg. Sobre Dan Haywood (Spencer Tracy), un juez norteamericano retirado, recae la importante responsabilidad de presidir este juicio contra los crímenes de guerra nazis.
Director Stanley Kramer
Actores Spencer Tracy, Burt Lancaster, Richard Widmark
Duración 186 min
País USA
Streaming (Servicio externo)
Grupo: AMIABLE
Versión: BDRip x264 720p DTS
Tamaño: 7.8 GB
Judgment.at.Nuremberg.1961.720p.BluRay.X264-AMIABLE

Date .....: 27th April 2014
Runtime ..: 02:59:12
Size .....: 7840mb
Video ....: 1200x720 (X264 @ 23.976fps)
Audio ....: DTS 1509k
Source ...: Retail Blu-Ray
Lang .....: English  
Subs .....: English 
IMDB .....: http://www.imdb.com/title/tt0055031/ 
Rating ...: 8.3/10   29,220 votes 
Screens ..: Opening Week - 1961
Genre ....: Drama | History | War 

Subtitulos

Grupo: AMIABLE
Versión: BDRip x264 1080p DTS
Tamaño: 12.3 GB
Judgment.at.Nuremberg.1961.1080p.BluRay.X264-AMIABLE

Date .....: 27th April 2014
Runtime ..: 02:59:12
Size .....: 12320mb
Video ....: 1792x1080 (X264 @ 23.976fps)
Audio ....: DTS 1509k
Source ...: Retail Blu-Ray
Lang .....: English  
Subs .....: English 
IMDB .....: http://www.imdb.com/title/tt0055031/
Rating ...: 8.3/10   29,220 votes 
Screens ..: Opening Week - 1961
Genre ....: Drama | History | War

Subtitulos

Grupo: RARBG
Versión: BDRip H.264 720p AAC
Tamaño: 2.2 GB
Judgment.at.Nuremberg.1961.720p.BluRay.H264.AAC-RARBG

Video
ID                                       : 1
Format                                   : AVC
Format/Info                              : Advanced Video Codec
Format profile                           : [email protected]
Format settings, CABAC                   : Yes
Format settings, ReFrames                : 4 frames
Codec ID                                 : avc1
Codec ID/Info                            : Advanced Video Coding
Duration                                 : 2 h 59 min
Bit rate                                 : 1 500 kb/s
Width                                    : 1 280 pixels
Height                                   : 772 pixels
Display aspect ratio                     : 5:3
Frame rate mode                          : Constant
Frame rate                               : 23.976 (23976/1000) FPS
Color space                              : YUV
Chroma subsampling                       : 4:2:0
Bit depth                                : 8 bits
Scan type                                : Progressive
Bits/(Pixel*Frame)                       : 0.063
Stream size                              : 1.88 GiB (87%)
Writing library                          : x264 core 152 r2851M ba24899
Encoding settings                        : cabac=1 / ref=4 / deblock=1:-1:-1 / analyse=0x3:0x113 / me=umh / subme=9 / psy=1 / psy_rd=1.00:0.15 / mixed_ref=1 / me_range=24 / chroma_me=1 / trellis=2 / 8x8dct=1 / cqm=0 / deadzone=21,11 / fast_pskip=1 / chroma_qp_offset=-3 / threads=32 / lookahead_threads=4 / sliced_threads=0 / nr=0 / decimate=1 / interlaced=0 / bluray_compat=0 / constrained_intra=0 / bframes=3 / b_pyramid=2 / b_adapt=2 / b_bias=0 / direct=3 / weightb=1 / open_gop=0 / weightp=2 / keyint=250 / keyint_min=25 / scenecut=40 / intra_refresh=0 / rc_lookahead=50 / rc=2pass / mbtree=1 / bitrate=1500 / ratetol=1.0 / qcomp=0.60 / qpmin=0 / qpmax=69 / qpstep=4 / cplxblur=20.0 / qblur=0.5 / vbv_maxrate=31250 / vbv_bufsize=31250 / nal_hrd=none / filler=0 / ip_ratio=1.40 / aq=3:1.00
Encoded date                             : UTC 2017-08-26 08:53:05
Tagged date                              : UTC 2017-08-26 08:53:05

Audio
ID                                       : 2
Format                                   : AAC
Format/Info                              : Advanced Audio Codec
Format profile                           : LC
Codec ID                                 : 40
Duration                                 : 2 h 59 min
Bit rate mode                            : Constant
Bit rate                                 : 224 kb/s
Channel(s)                               : 2 channels
Channel positions                        : Front: L R
Sampling rate                            : 48.0 kHz
Frame rate                               : 46.875 FPS (1024 spf)
Compression mode                         : Lossy
Stream size                              : 287 MiB (13%)
Language                                 : English
Default                                  : Yes
Alternate group                          : 1
Encoded date                             : UTC 2017-08-26 08:53:05
Tagged date                              : UTC 2017-08-26 08:53:05

Subtitulos

Grupo: DON
Versión: BDRip x264 720p AC3
Tamaño: 15.7 GB
General
Unique ID : 172842037053895208670153801420647629763 (0x82082A5CF8222543A7F17469E45F03C3)
Complete name : Judgment.at.Nuremberg.1961.720p.BluRay.DD5.1.x264-DON.mkv
Format : Matroska
Format version : Version 4 / Version 2
File size : 15.7 GiB
Duration : 2h 59mn
Overall bit rate : 12.5 Mbps
Movie name : Judgment at Nuremberg (1961) - HDBits Internal
Encoded date : UTC 2014-11-30 16:27:36
Writing application : mkvmerge v7.3.0 ('Nouages') 32bit built on Oct 22 2014 18:44:01
Writing library : libebml v1.3.0 + libmatroska v1.4.1
DURATION : 02:59:04.733000000
NUMBER_OF_FRAMES : 2676
NUMBER_OF_BYTES : 93502
_STATISTICS_WRITING_APP : mkvmerge v7.3.0 ('Nouages') 32bit built on Oct 22 2014 18:44:01
_STATISTICS_WRITING_DATE_UTC : 2014-11-30 16:27:36
_STATISTICS_TAGS : BPS DURATION NUMBER_OF_FRAMES NUMBER_OF_BYTES

Video
ID : 1
Format : AVC
Format/Info : Advanced Video Codec
Format profile : [email protected]
Format settings, CABAC : Yes
Format settings, ReFrames : 9 frames
Codec ID : V_MPEG4/ISO/AVC
Duration : 2h 59mn
Bit rate : 11.6 Mbps
Width : 1 194 pixels
Height : 720 pixels
Display aspect ratio : 1.658
Original display aspect ratio : 1.657
Frame rate mode : Constant
Frame rate : 23.976 fps
Color space : YUV
Chroma subsampling : 4:2:0
Bit depth : 8 bits
Scan type : Progressive
Bits/(Pixel*Frame) : 0.564
Stream size : 14.5 GiB (93%)
Title : HDBits Internal
Writing library : x264 core 142 r2431+42 c69a006 tMod [[email protected]:2:0 X86_64]
Encoding settings : cabac=1 / ref=9 / deblock=1:-3:-3 / analyse=0x3:0x133 / me=umh / subme=11 / psy=1 / fade_compensate=0.00 / psy_rd=0.95:0.00 / mixed_ref=1 / me_range=32 / chroma_me=1 / trellis=2 / 8x8dct=1 / cqm=0 / deadzone=21,11 / fast_pskip=0 / chroma_qp_offset=-2 / threads=6 / lookahead_threads=1 / sliced_threads=0 / nr=0 / decimate=0 / interlaced=0 / bluray_compat=0 / constrained_intra=0 / fgo=0 / bframes=10 / b_pyramid=2 / b_adapt=2 / b_bias=0 / direct=3 / weightb=1 / open_gop=0 / weightp=2 / keyint=250 / keyint_min=23 / scenecut=40 / intra_refresh=0 / rc_lookahead=60 / rc=crf / mbtree=0 / crf=17.5000 / qcomp=0.65 / qpmin=0:0:0 / qpmax=69:69:69 / qpstep=4 / vbv_maxrate=62500 / vbv_bufsize=78125 / crf_max=0.0 / nal_hrd=none / filler=0 / ip_ratio=1.20 / pb_ratio=1.10 / aq=1:0.80 / aq-sensitivity=10.00 / aq-factor=1.00:1.00:1.00 / aq2=0 / aq3=0
Language : English
Default : Yes
Forced : No

Audio
ID : 2
Format : AC-3
Format/Info : Audio Coding 3
Mode extension : CM (complete main)
Format settings, Endianness : Big
Codec ID : A_AC3
Duration : 2h 59mn
Bit rate mode : Constant
Bit rate : 640 Kbps
Channel(s) : 6 channels
Channel positions : Front: L C R, Side: L R, LFE
Sampling rate : 48.0 KHz
Bit depth : 16 bits
Compression mode : Lossy
Stream size : 820 MiB (5%)
Language : English
Default : Yes
Forced : No

Text #1
ID : 3
Format : UTF-8
Codec ID : S_TEXT/UTF8
Codec ID/Info : UTF-8 Plain Text
Language : English
Default : No
Forced : No

Text #2
ID : 4
Format : UTF-8
Codec ID : S_TEXT/UTF8
Codec ID/Info : UTF-8 Plain Text
Title : SDH
Language : English
Default : No
Forced : No

Menu
00:00:00.000 : en:00:00:00.000
00:15:59.167 : en:00:15:59.167
00:31:58.917 : en:00:31:58.917
00:49:10.739 : en:00:49:10.739
01:07:53.152 : en:01:07:53.152
01:19:44.571 : en:01:19:44.571
01:32:16.448 : en:01:32:16.448
01:53:18.667 : en:01:53:18.667
02:08:00.923 : en:02:08:00.923
02:24:21.027 : en:02:24:21.027
02:28:59.472 : en:02:28:59.472
02:52:06.650 : en:02:52:06.650
Grupo: NDRT
Versión: DVDRip XviD AC3
Tamaño: 1.4 GB
Video Length .......: 03:06:32 
Video Codec Name ...: XviD 1.0.0 
Video Bitrate ......: 953 Kb/s 
Quality Factor .....: 0.211 (bits/pixel)/frame 
Resolution .........: 560 x 336 
Aspect Ratio .......: 1.667:1 
Framerate ..........: 23.976 FPS 
Packed Bitstream ...: Yes 
Duplicate Frames ...: No 
Max. consec. B-Frms : 0
GMC ................: No 
Q-Pel ..............: No 

Audio Codec Name ...: 0x2000 (Dolby AC3) AC3 
Audio Bitrate ......: 192 Kb/s (CBR) 
Audio Samplerate ...: 48000 Hz 
Channels ...........: 2 Ch 

Subtitulos

Trailer