79
PUNTOS
Calificar
CALIFICA
Calificar
Califica y/o escribe un comentario sobre la película.
Comentarios en el foroFORO

Taeksi Woonjunsa (2017)

Basada en hechos reales. Un taxista ayuda a un reportero alemán a cubrir el Levantamiento de Gwangiu, en 1980 en Corea del Sur.
Director Hun Jang
Actores Kang-ho Song, Thomas Kretschmann, Hae-jin Yoo
Duración 137 min
País South Korea
Streaming (Servicio externo)
Grupo: REGRET
Versión: BDRip x264 AAC
Tamaño: 875 MB
A.Taxi.Driver.2017.BDRip.x264-REGRET

Release Date...: Check your prebot
Duration.......: 2h 17min
Video..........: 720x302 CRF 19 @ 742 Kbps @ 24 fps
Audio..........: Korean Stereo AAC @ 132 Kbps
Subtitles......: English, Chinese
Size...........: 874 mb
IMDB...........: http://www.imdb.com/title/tt6878038/
Grupo: REGRET
Versión: BDRip x264 1080p AC3
Tamaño: 9.8 GB
A.Taxi.Driver.2017.1080p.BluRay.x264-REGRET

Release Date...: Check your prebot
Duration.......: 2h 17min
Video..........: 1920x808 2pass @ 9,603 Kbps @ 24 fps
Audio..........: Korean 6ch AC3 @ 640 Kbps
Subtitles......: English, Chinese
Size...........: 10,071 mb
IMDB...........: http://www.imdb.com/title/tt6878038/
Grupo: HDC
Versión: BDRip x264 720p DTS
Tamaño: 8.2 GB
Video
ID                                       : 1
Format                                   : AVC
Format/Info                              : Advanced Video Codec
Format profile                           : High@L4.1
Format settings                          : CABAC / 12 Ref Frames
Format settings, CABAC                   : Yes
Format settings, ReFrames                : 12 frames
Codec ID                                 : V_MPEG4/ISO/AVC
Duration                                 : 2 h 17 min
Bit rate                                 : 7 000 kb/s
Width                                    : 1 280 pixels
Height                                   : 536 pixels
Display aspect ratio                     : 2.40:1
Frame rate mode                          : Constant
Frame rate                               : 24.000 FPS
Color space                              : YUV
Chroma subsampling                       : 4:2:0
Bit depth                                : 8 bits
Scan type                                : Progressive
Bits/(Pixel*Frame)                       : 0.425
Stream size                              : 6.71 GiB (82%)
Title                                    : A.Taxi.Driver.2017.720p.BluRay.DTS-HDC
Writing library                          : x264 core 142 r2431+42 c69a006 tMod [8-bit@all X86_64]
Encoding settings                        : cabac=1 / ref=12 / deblock=1:-3:-3 / analyse=0x3:0x133 / me=umh / subme=11 / psy=1 / fade_compensate=0.00 / psy_rd=0.80:0.00 / mixed_ref=1 / me_range=48 / chroma_me=1 / trellis=2 / 8x8dct=1 / cqm=0 / deadzone=21,11 / fast_pskip=0 / chroma_qp_offset=-2 / threads=48 / lookahead_threads=4 / sliced_threads=0 / nr=0 / decimate=0 / interlaced=0 / bluray_compat=0 / constrained_intra=0 / fgo=0 / bframes=9 / b_pyramid=2 / b_adapt=2 / b_bias=0 / direct=3 / weightb=1 / open_gop=0 / weightp=2 / keyint=240 / keyint_min=24 / scenecut=40 / intra_refresh=0 / rc_lookahead=0 / rc=2pass / mbtree=0 / bitrate=7000 / ratetol=1.0 / qcomp=0.70 / qpmin=0:0:0 / qpmax=69:69:69 / qpstep=4 / cplxblur=20.0 / qblur=0.5 / vbv_maxrate=50000 / vbv_bufsize=30000 / nal_hrd=none / filler=0 / ip_ratio=1.10 / pb_ratio=1.15 / aq=3:1.10 / aq-sensitivity=10.00 / aq-factor=1.00:1.00:1.00 / aq2=0 / aq3=0
Default                                  : Yes
Forced                                   : No

Audio
ID                                       : 2
Format                                   : DTS
Format/Info                              : Digital Theater Systems
Codec ID                                 : A_DTS
Duration                                 : 2 h 17 min
Bit rate mode                            : Constant
Bit rate                                 : 1 509 kb/s
Channel(s)                               : 6 channels
Channel positions                        : Front: L C R, Side: L R, LFE
Sampling rate                            : 48.0 kHz
Frame rate                               : 93.750 FPS (512 SPF)
Bit depth                                : 24 bits
Compression mode                         : Lossy
Stream size                              : 1.45 GiB (18%)
Title                                    : A.Taxi.Driver.2017.720p.BluRay.DTS-HDC
Language                                 : Korean
Default                                  : Yes
Forced                                   : No

Text
ID                                       : 3
Format                                   : UTF-8
Codec ID                                 : S_TEXT/UTF8
Codec ID/Info                            : UTF-8 Plain Text
Duration                                 : 2 h 12 min
Bit rate                                 : 43 b/s
Count of elements                        : 1454
Stream size                              : 41.9 KiB (0%)
Title                                    : English
Language                                 : English
Default                                  : Yes
Forced                                   : No

Menu
00:00:00.000                             : en:00:00:00.000
00:16:59.750                             : en:00:16:59.750
00:33:37.333                             : en:00:33:37.333
00:51:10.042                             : en:00:51:10.042
01:08:50.833                             : en:01:08:50.833
01:24:58.250                             : en:01:24:58.250
01:42:13.792                             : en:01:42:13.792
01:59:31.542                             : en:01:59:31.542
Grupo: HDC
Versión: BDRip x264 1080p DTS
Tamaño: 13.9 GB
Video
ID                                       : 1
Format                                   : AVC
Format/Info                              : Advanced Video Codec
Format profile                           : High@L4.1
Format settings                          : CABAC / 5 Ref Frames
Format settings, CABAC                   : Yes
Format settings, ReFrames                : 5 frames
Codec ID                                 : V_MPEG4/ISO/AVC
Duration                                 : 2 h 17 min
Bit rate                                 : 13.0 Mb/s
Width                                    : 1 920 pixels
Height                                   : 804 pixels
Display aspect ratio                     : 2.40:1
Frame rate mode                          : Constant
Frame rate                               : 24.000 FPS
Color space                              : YUV
Chroma subsampling                       : 4:2:0
Bit depth                                : 8 bits
Scan type                                : Progressive
Bits/(Pixel*Frame)                       : 0.351
Stream size                              : 12.5 GiB (90%)
Title                                    : A.Taxi.Driver.2017.1080p.BluRay.x264.DTS-HDC
Writing library                          : x264 core 129 r2230 1cffe9f
Encoding settings                        : cabac=1 / ref=5 / deblock=1:-3:-3 / analyse=0x3:0x133 / me=umh / subme=11 / psy=1 / psy_rd=0.80:0.00 / mixed_ref=1 / me_range=64 / chroma_me=1 / trellis=2 / 8x8dct=1 / cqm=0 / deadzone=21,11 / fast_pskip=0 / chroma_qp_offset=-2 / threads=48 / lookahead_threads=8 / sliced_threads=0 / nr=0 / decimate=0 / interlaced=0 / bluray_compat=0 / constrained_intra=0 / bframes=9 / b_pyramid=2 / b_adapt=2 / b_bias=0 / direct=3 / weightb=1 / open_gop=0 / weightp=2 / keyint=240 / keyint_min=24 / scenecut=40 / intra_refresh=0 / rc_lookahead=40 / rc=2pass / mbtree=0 / bitrate=13000 / ratetol=1.0 / qcomp=0.70 / qpmin=0 / qpmax=69 / qpstep=4 / cplxblur=20.0 / qblur=0.5 / vbv_maxrate=50000 / vbv_bufsize=45000 / nal_hrd=none / ip_ratio=1.10 / pb_ratio=1.15 / aq=2:1.10
Default                                  : Yes
Forced                                   : No

Audio
ID                                       : 2
Format                                   : DTS
Format/Info                              : Digital Theater Systems
Codec ID                                 : A_DTS
Duration                                 : 2 h 17 min
Bit rate mode                            : Constant
Bit rate                                 : 1 509 kb/s
Channel(s)                               : 6 channels
Channel positions                        : Front: L C R, Side: L R, LFE
Sampling rate                            : 48.0 kHz
Frame rate                               : 93.750 FPS (512 SPF)
Bit depth                                : 24 bits
Compression mode                         : Lossy
Stream size                              : 1.45 GiB (10%)
Title                                    : A.Taxi.Driver.2017.1080p.BluRay.x264.DTS-HDC
Language                                 : Korean
Default                                  : Yes
Forced                                   : No

Text
ID                                       : 3
Format                                   : UTF-8
Codec ID                                 : S_TEXT/UTF8
Codec ID/Info                            : UTF-8 Plain Text
Duration                                 : 2 h 12 min
Bit rate                                 : 43 b/s
Count of elements                        : 1454
Stream size                              : 41.9 KiB (0%)
Title                                    : English
Language                                 : English
Default                                  : Yes
Forced                                   : No
Trailer