70
PUNTOS
Calificar
CALIFICA
Calificar
Califica y/o escribe un comentario sobre la película.
Comentarios en el foroFORO

Le sens de la fête (2017)

Una boda de lujo en un castillo francés del siglo XVIII se les va de las manos a sus responsables. La película narra los entresijos de la boda desde la perspectiva del personal de cátering, el fotógrafo y el DJ.
Director Olivier Nakache, Éric Toledano
Actores Jean-Pierre Bacri, Jean-Paul Rouve, Gilles Lellouche
Duración 117 min
País Belgium, Canada, France
Streaming (Servicio externo)
Grupo: Ulysse
Versión: BDRip x264 720p DTS
Tamaño: 5.5 GB
General
Unique ID : 141188085866962730706193201758738868772 (0x6A37D613932FB3759B681E995FA46A24)
Complete name : Le.Sens.de.la.Fete.2017.FRENCH.720p.BluRay.x264-Ulysse.mkv
Format : Matroska
Format version : Version 2
File size : 5.46 GiB
Duration : 1h 55mn
Overall bit rate : 6 772 Kbps
Writing application : mkvmerge v6.6.0 ('The Edge Of The In Between') built on Dec 1 2013 17:55:00
Writing library : libebml v1.3.0 + libmatroska v1.4.1

Video
ID : 1
Format : AVC
Format/Info : Advanced Video Codec
Format profile : [email protected]
Format settings : CABAC / 5 Ref Frames
Format settings, CABAC : Yes
Format settings, ReFrames : 5 frames
Codec ID : V_MPEG4/ISO/AVC
Duration : 1h 55mn
Bit rate : 5 262 Kbps
Width : 1 280 pixels
Height : 688 pixels
Display aspect ratio : 1.85:1
Frame rate mode : Constant
Frame rate : 24.000 fps
Color space : YUV
Chroma subsampling : 4:2:0
Bit depth : 8 bits
Scan type : Progressive
Bits/(Pixel*Frame) : 0.249
Stream size : 4.13 GiB (76%)
Writing library : x264 core 152 r2851 ba24899
Encoding settings : cabac=1 / ref=5 / deblock=1:0:0 / analyse=0x3:0x113 / me=umh / subme=8 / psy=1 / psy_rd=1.00:0.00 / mixed_ref=1 / me_range=16 / chroma_me=1 / trellis=1 / 8x8dct=1 / cqm=0 / deadzone=21,11 / fast_pskip=1 / chroma_qp_offset=-2 / threads=18 / lookahead_threads=3 / sliced_threads=0 / nr=0 / decimate=1 / interlaced=0 / bluray_compat=0 / constrained_intra=0 / bframes=3 / b_pyramid=2 / b_adapt=2 / b_bias=0 / direct=3 / weightb=1 / open_gop=0 / weightp=2 / keyint=240 / keyint_min=24 / scenecut=40 / intra_refresh=0 / rc_lookahead=50 / rc=2pass / mbtree=1 / bitrate=5262 / ratetol=1.0 / qcomp=0.60 / qpmin=0 / qpmax=69 / qpstep=4 / cplxblur=20.0 / qblur=0.5 / ip_ratio=1.40 / aq=1:1.00
Language : English
Default : Yes
Forced : No

Audio
ID : 2
Format : DTS
Format/Info : Digital Theater Systems
Codec ID : A_DTS
Duration : 1h 55mn
Bit rate mode : Constant
Bit rate : 1 509 Kbps
Channel(s) : 6 channels
Channel positions : Front: L C R, Side: L R, LFE
Sampling rate : 48.0 KHz
Frame rate : 93.750 fps (512 SPF)
Bit depth : 24 bits
Compression mode : Lossy
Stream size : 1.22 GiB (22%)
Title : French DTS 1509kbps
Language : French
Default : Yes
Forced : No

Text
ID : 3
Format : UTF-8
Codec ID : S_TEXT/UTF8
Codec ID/Info : UTF-8 Plain Text
Title : Forced
Language : French
Default : Yes
Forced : Yes

Menu
00:00:00.000 : en:00:00:00.000
00:07:14.833 : en:00:07:14.833
00:16:18.208 : en:00:16:18.208
00:24:51.542 : en:00:24:51.542
00:32:38.208 : en:00:32:38.208
00:43:28.375 : en:00:43:28.375
00:53:42.708 : en:00:53:42.708
01:02:56.167 : en:01:02:56.167
01:11:01.667 : en:01:11:01.667
01:23:37.292 : en:01:23:37.292
01:35:25.792 : en:01:35:25.792
01:45:15.292 : en:01:45:15.292

Subtitulos

Grupo: Ulysse
Versión: BDRip x264 1080p DTS
Tamaño: 7.9 GB
General
Unique ID : 269134863481159276366233309257492807587 (0xCA797D408438CEF803FD7D7694233FA3)
Complete name : Le.Sens.de.la.Fete.2017.FRENCH.1080p.BluRay.x264-Ulysse.mkv
Format : Matroska
Format version : Version 2
File size : 7.94 GiB
Duration : 1h 55mn
Overall bit rate : 9 849 Kbps
Writing application : mkvmerge v6.6.0 ('The Edge Of The In Between') built on Dec 1 2013 17:55:00
Writing library : libebml v1.3.0 + libmatroska v1.4.1

Video
ID : 1
Format : AVC
Format/Info : Advanced Video Codec
Format profile : [email protected]
Format settings : CABAC / 4 Ref Frames
Format settings, CABAC : Yes
Format settings, ReFrames : 4 frames
Codec ID : V_MPEG4/ISO/AVC
Duration : 1h 55mn
Bit rate : 8 340 Kbps
Width : 1 920 pixels
Height : 1 040 pixels
Display aspect ratio : 1.85:1
Frame rate mode : Constant
Frame rate : 24.000 fps
Color space : YUV
Chroma subsampling : 4:2:0
Bit depth : 8 bits
Scan type : Progressive
Bits/(Pixel*Frame) : 0.174
Stream size : 6.56 GiB (83%)
Writing library : x264 core 152 r2851 ba24899
Encoding settings : cabac=1 / ref=4 / deblock=1:0:0 / analyse=0x3:0x113 / me=umh / subme=8 / psy=1 / psy_rd=1.00:0.00 / mixed_ref=1 / me_range=16 / chroma_me=1 / trellis=1 / 8x8dct=1 / cqm=0 / deadzone=21,11 / fast_pskip=1 / chroma_qp_offset=-2 / threads=18 / lookahead_threads=3 / sliced_threads=0 / nr=0 / decimate=1 / interlaced=0 / bluray_compat=0 / constrained_intra=0 / bframes=3 / b_pyramid=2 / b_adapt=2 / b_bias=0 / direct=3 / weightb=1 / open_gop=0 / weightp=2 / keyint=240 / keyint_min=24 / scenecut=40 / intra_refresh=0 / rc_lookahead=50 / rc=2pass / mbtree=1 / bitrate=8340 / ratetol=1.0 / qcomp=0.60 / qpmin=0 / qpmax=69 / qpstep=4 / cplxblur=20.0 / qblur=0.5 / ip_ratio=1.40 / aq=1:1.00
Language : English
Default : Yes
Forced : No

Audio
ID : 2
Format : DTS
Format/Info : Digital Theater Systems
Codec ID : A_DTS
Duration : 1h 55mn
Bit rate mode : Constant
Bit rate : 1 509 Kbps
Channel(s) : 6 channels
Channel positions : Front: L C R, Side: L R, LFE
Sampling rate : 48.0 KHz
Frame rate : 93.750 fps (512 SPF)
Bit depth : 24 bits
Compression mode : Lossy
Stream size : 1.22 GiB (15%)
Title : French DTS 1509kbps
Language : French
Default : Yes
Forced : No

Text
ID : 3
Format : UTF-8
Codec ID : S_TEXT/UTF8
Codec ID/Info : UTF-8 Plain Text
Title : Forced
Language : French
Default : Yes
Forced : Yes

Menu
00:00:00.000 : en:00:00:00.000
00:07:14.833 : en:00:07:14.833
00:16:18.208 : en:00:16:18.208
00:24:51.542 : en:00:24:51.542
00:32:38.208 : en:00:32:38.208
00:43:28.375 : en:00:43:28.375
00:53:42.708 : en:00:53:42.708
01:02:56.167 : en:01:02:56.167
01:11:01.667 : en:01:11:01.667
01:23:37.292 : en:01:23:37.292
01:35:25.792 : en:01:35:25.792
01:45:15.292 : en:01:45:15.292

Subtitulos

Trailer