67
PUNTOS
Calificar
CALIFICA
Calificar
Califica y/o escribe un comentario sobre la película.
Comentarios en el foroFORO

Le Redoutable (2017)

Mediados de los 60. Durante el rodaje de una de sus películas, el director francés Jean-Luc Godard, recién divorciado de Anna Karina, se enamora de la actriz de 17 años Anne Wiazemsky, con la que más tarde se casaría. Pero la acogida de la película no es positiva y desata una crisis en Jean-Luc.
Director Michel Hazanavicius
Actores Louis Garrel, Stacy Martin, Bérénice Bejo
Duración 107 min
País France, Myanmar
Streaming (Servicio externo)
Grupo: SHARKS
Versión: BDRip x264 720p AC3
Tamaño: 4.6 GB
General
Unique ID : 30745985868847156638235482186610521795 (0x17217623E91BB94D85D2A520779236C3)
Complete name : Le.Redoutable.2017.FRENCH.720p.BluRay.x264-SHARKS.mkv
Format : Matroska
Format version : Version 4 / Version 2
File size : 4.58 GiB
Duration : 1h 47mn
Overall bit rate : 6 083 Kbps
Movie name : Le Redoutable (2017)
Encoded date : UTC 2018-01-31T19:52:00Z
Writing application : HandBrake 1.0.7 2017040900
Writing library : Lavf57.7.2

Video
ID : 1
Format : AVC
Format/Info : Advanced Video Codec
Format profile : [email protected]
Format settings, CABAC : Yes
Format settings, ReFrames : 4 frames
Codec ID : V_MPEG4/ISO/AVC
Duration : 1h 47mn
Bit rate : 5 787 Kbps
Width : 1 280 pixels
Height : 692 pixels
Display aspect ratio : 1.85:1
Frame rate mode : Constant
Frame rate : 24.000 fps
Color space : YUV
Chroma subsampling : 4:2:0
Bit depth : 8 bits
Scan type : Progressive
Bits/(Pixel*Frame) : 0.272
Stream size : 4.15 GiB (91%)
Writing library : x264 core 148 r2708 86b7198
Encoding settings : cabac=1 / ref=1 / deblock=1:0:0 / analyse=0x3:0x113 / me=hex / subme=2 / psy=1 / psy_rd=1.00:0.00 / mixed_ref=0 / me_range=16 / chroma_me=1 / trellis=0 / 8x8dct=1 / cqm=0 / deadzone=21,11 / fast_pskip=1 / chroma_qp_offset=0 / threads=12 / lookahead_threads=4 / sliced_threads=0 / nr=0 / decimate=1 / interlaced=0 / bluray_compat=0 / constrained_intra=0 / bframes=3 / b_pyramid=2 / b_adapt=1 / b_bias=0 / direct=1 / weightb=1 / open_gop=0 / weightp=1 / keyint=240 / keyint_min=24 / scenecut=40 / intra_refresh=0 / rc_lookahead=10 / rc=abr / mbtree=1 / bitrate=5787 / ratetol=1.0 / qcomp=0.60 / qpmin=0 / qpmax=69 / qpstep=4 / vbv_maxrate=62500 / vbv_bufsize=78125 / nal_hrd=none / filler=0 / ip_ratio=1.40 / aq=1:1.00
Default : Yes
Forced : No
Color primaries : BT.709
Transfer characteristics : BT.709
Matrix coefficients : BT.709

Audio
ID : 2
Format : AC-3
Format/Info : Audio Coding 3
Mode extension : CM (complete main)
Format settings, Endianness : Big
Codec ID : A_AC3
Duration : 1h 47mn
Bit rate mode : Constant
Bit rate : 448 Kbps
Channel(s) : 6 channels
Channel positions : Front: L C R, Side: L R, LFE
Sampling rate : 48.0 KHz
Bit depth : 16 bits
Compression mode : Lossy
Delay relative to video : -5ms
Stream size : 345 MiB (7%)
Title : VF VOF
Language : French
Default : Yes
Forced : No

Text #1
ID : 3
Format : PGS
Codec ID : S_HDMV/PGS
Codec ID/Info : The same subtitle format used on BDs/HD-DVDs
Language : French
Default : No
Forced : No

Text #2
ID : 4
Format : PGS
Codec ID : S_HDMV/PGS
Codec ID/Info : The same subtitle format used on BDs/HD-DVDs
Language : French
Default : No
Forced : No

Text #3
ID : 5
Format : PGS
Codec ID : S_HDMV/PGS
Codec ID/Info : The same subtitle format used on BDs/HD-DVDs
Language : English
Default : No
Forced : No

Menu
00:00:00.000 : :Chapter 1
00:13:06.292 : :Chapter 2
00:18:47.417 : :Chapter 3
00:23:18.417 : :Chapter 4
00:34:44.500 : :Chapter 5
00:43:38.208 : :Chapter 6
00:52:39.250 : :Chapter 7
00:59:36.208 : :Chapter 8
01:09:56.875 : :Chapter 9
01:18:06.417 : :Chapter 10
01:26:51.917 : :Chapter 11
01:32:36.042 : :Chapter 12

Subtitulos

Grupo: SHARKS
Versión: BDRip x264 1080p
Tamaño: 9.2 GB

Subtitulos

Grupo: CADAVER
Versión: BDRip x264 AAC LIMITED
Tamaño: 950 MB
Godard.Mon.Amour.2017.LiMiTED.BDRip.x264-CADAVER

Duration.......: 1 h 48 min
Video .........: x264 @ CRF 19 (1095 Kbps)
Frame Rate.....: 23.976 fps
Resolution.....: 720x390
Audio..........: French 2ch AAC @ 117 Kbps
Subtitles......: English
Size...........: 938.4 MB
IMDB...........: https://www.imdb.com/title/tt5687334

Subtitulos

Grupo: CADAVER
Versión: BDRip x264 720p LIMITED DTS
Tamaño: 5.5 GB
Godard.Mon.Amour.2017.LiMiTED.720p.BluRay.x264-CADAVER

Duration.......: 1 h 48 min
Video .........: x264 @ 5729 Kbps
Frame Rate.....: 23.976 fps
Resolution.....: 1280x696
Audio..........: French 5.1ch DTS @ 1509 Kbps
Subtitles......: English
Size...........: 5.5 GB
IMDB...........: https://www.imdb.com/title/tt5687334

Subtitulos

Grupo: CADAVER
Versión: BDRip x264 1080p LIMITED DTS
Tamaño: 7.6 GB
Godard.Mon.Amour.2017.LiMiTED.1080p.BluRay.x264-CADAVER

Duration.......: 1 h 48 min
Video .........: x264 @ 8627 Kbps
Frame Rate.....: 23.976 fps
Resolution.....: 1920x1040
Audio..........: French 5.1ch DTS @ 1509 Kbps
Subtitles......: English
Size...........: 7.6 GB
IMDB...........: https://www.imdb.com/title/tt5687334

Subtitulos

Trailer