78
PUNTOS
Calificar
CALIFICA
Calificar
Califica y/o escribe un comentario sobre la película.
Comentarios en el foroFORO

Phantom Thread (2017)

En el Londres de la posguerra, en 1950, el famoso modisto Reynolds Woodcock (Daniel Day-Lewis) y su hermana Cyril (Lesley Manville) están a la cabeza de la moda británica, vistiendo a la realeza, a estrellas de cine y a toda mujer elegante de la época. Un día, el soltero Reynolds encuentra a Alma (Vicky Krieps), una joven que pronto se convierte en su musa y amante. Y su vida, hasta entonces cuidadosamente controlada y planificada, se ve alterada por la irrupción del amor.
Director Paul Thomas Anderson
Actores Vicky Krieps, Daniel Day-Lewis, Lesley Manville
Duración 130 min
País UK, USA
Streaming (Servicio externo)
Grupo: GECKOS
Versión: BDRip x264 AAC
Tamaño: 1.0 GB
Phantom.Thread.2017.BDRip.x264-GECKOS

Date         : 28.03.2018
URL          : http://www.imdb.com/title/tt5776858
Video        : X264 @ crf 19
Resolution   : 720x388
Size         : 1054MB (1105355523 Bytes)
Audio        : AAC LC 2ch 48.0 KHz
Language     : English
Subtitles    :  English
Runtime      : 2h 10mn

Subtitulos

Grupo: GECKOS
Versión: BDRip x264 720p DTS
Tamaño: 5.5 GB
Phantom.Thread.2017.720p.BluRay.x264-GECKOS

Date         : 28.03.2018
URL          : http://www.imdb.com/title/tt5776858
X264 bitrate : 4502Kbps
Resolution   : 1280x688
Size         : 5597MB (5868655505 Bytes)
Audio        : DTS 1509Kbps 6ch
Language     : English
Subtitles    :  English
Runtime      : 2h 10mn

Subtitulos

Grupo: GECKOS
Versión: BDRip x264 1080p DTS
Tamaño: 9.8 GB
Phantom.Thread.2017.1080p.BluRay.x264-GECKOS

Date         : 28.03.2018
URL          : http://www.imdb.com/title/tt5776858
X264 bitrate : 9316Kbps
Resolution   : 1920x1040
Size         : 10077MB (10566366394 Bytes)
Audio        : DTS 1509Kbps 6ch
Language     : English
Subtitles    :  English
Runtime      : 2h 10mn

Subtitulos

Grupo: SPRiNTER
Versión: BDRip x264 720p INTERNAL DTS:X
Tamaño: 13.4 GB
Phantom.Thread.2017.iNTERNAL.720p.BluRay.x264-SPRiNTER

Release.Date: 29.03.2018
Source......: Retail
Size........: 13.4 GiB
Video.....  : x264 CRF18 @ 8508 kb/s
Frame.Rate..: 23.976 fps
Resolution..: 1280x690
Audio.......: DTS:X 7.1 @ 6228 kb/s (DTS 5.1 @ 1509 kb/s)
Language....: English
Length......: 2 h 10 min
Subtitles...: English (srt)
: English SDH (srt, sup)
: Spanish (sup)
: French (sup)

Subtitulos

Grupo: SPRiNTER
Versión: BDRip x264 1080p INTERNAL DTS:X
Tamaño: 23.7 GB
Phantom.Thread.2017.iNTERNAL.1080p.BluRay.x264-SPRiNTER

Release.Date: 29.03.2018
Source......: Retail
Size........: 23.7 GiB
Video.....  : x264 CRF19 @ 19.9 Mb/s
Frame.Rate..: 23.976 fps
Resolution..: 1920x1036
Audio.......: DTS:X 7.1 @ 6228 kb/s (DTS 5.1 @ 1509 kb/s)
Language....: English
Length......: 2 h 10 min
Subtitles...: English (srt)
: English SDH (srt, sup)
: Spanish (sup)
: French (sup)

Subtitulos

Grupo: TiTAN
Versión: DVDSCR x264 AC3
Tamaño: 1.3 GB
Phantom.Thread.2017.DVDSCR.x264.AC3-TiTAN

 Source: DrinkBetterWater
 
 General
 
 Format                      : Matroska
 Format version              : Version 2
 File size                   : 1.31 GiB
 Duration                    : 2 h 10 min
 Overall bit rate mode       : Variable
 Overall bit rate            : 1 445 kb/s
 
 
 Video
 ID                          : 1
 Format                      : AVC
 Format/Info                 : Advanced Video Codec
 Format profile              : [email protected]
 Format settings             : CABAC / 3 Ref Frames
 Format settings, CABAC      : Yes
 Format settings, ReFrames   : 3 frames
 Codec ID                    : V_MPEG4/ISO/AVC
 Duration                    : 2 h 10 min
 Bit rate mode               : Variable
 Bit rate                    : 1 250 kb/s
 Maximum bit rate            : 40.0 Mb/s
 Width                       : 720 pixels
 Height                      : 384 pixels
 Display aspect ratio        : 1.85:1
 Frame rate mode             : Constant
 Frame rate                  : 23.976 (24000/1001) FPS
 Color space                 : YUV
 Chroma subsampling          : 4:2:0
 Bit depth                   : 8 bits
 Scan type                   : Progressive
 Bits/(Pixel*Frame)          : 0.189
 Stream size                 : 1.14 GiB (87%)
 Default                     : Yes
 Forced                      : No
 Color range                 : Full
 Color primaries             : BT.709
 Transfer characteristics    : BT.709
 Matrix coefficients         : BT.709
 
 Audio
 ID                          : 2
 Format                      : AC-3
 Format/Info                 : Audio Coding 3
 Codec ID                    : A_AC3
 Duration                    : 2 h 10 min
 Bit rate mode               : Constant
 Bit rate                    : 192 kb/s
 Channel(s)                  : 2 channels
 Channel positions           : Front: L R
 Sampling rate               : 48.0 kHz
 Frame rate                  : 31.250 FPS (1536 SPF)
 Bit depth                   : 16 bits
 Compression mode            : Lossy
 Stream size                 : 179 MiB (13%)
 Service kind                : Complete Main
 Default                     : Yes
 Forced                      : No

Subtitulos

Trailer