64
PUNTOS
Calificar
CALIFICA
Calificar
Califica y/o escribe un comentario sobre la película.
Comentarios en el foroFORO

Little Evil (2017)

Gary, que acaba de casarse con Samantha, la mujer de sus sueños, descubre que su hijastro de 6 años podría ser el Anticristo.
Director Eli Craig
Actores Evangeline Lilly, Adam Scott, Clancy Brown
Duración 95 min
País USA
Streaming (Servicio externo)
Grupo: FGT
Versión: WEBRip x264 AAC
Tamaño: 825 MB
Little.Evil.2017.WEBRip.x264-FGT

Video
ID                                       : 1
Format                                   : AVC
Format/Info                              : Advanced Video Codec
Format profile                           : High@L3.1
Format settings, CABAC                   : Yes
Format settings, ReFrames                : 5 frames
Codec ID                                 : avc1
Codec ID/Info                            : Advanced Video Coding
Duration                                 : 1 h 34 min
Bit rate                                 : 1 100 kb/s
Width                                    : 720 pixels
Height                                   : 304 pixels
Display aspect ratio                     : 2.40:1
Frame rate mode                          : Constant
Frame rate                               : 23.976 (24000/1001) FPS
Color space                              : YUV
Chroma subsampling                       : 4:2:0
Bit depth                                : 8 bits
Scan type                                : Progressive
Bits/(Pixel*Frame)                       : 0.210
Stream size                              : 734 MiB (89%)
Title                                    : Little.Evil.2017.WEBRip.x264-FGT
Writing library                          : x264 core 152 r2851M ba24899
Encoding settings                        : cabac=1 / ref=5 / deblock=1:-1:-1 / analyse=0x3:0x113 / me=umh / subme=9 / psy=1 / psy_rd=1.00:0.15 / mixed_ref=1 / me_range=16 / chroma_me=1 / trellis=2 / 8x8dct=1 / cqm=0 / deadzone=21,11 / fast_pskip=1 / chroma_qp_offset=-3 / threads=40 / lookahead_threads=2 / sliced_threads=0 / nr=0 / decimate=1 / interlaced=0 / bluray_compat=0 / constrained_intra=0 / bframes=3 / b_pyramid=2 / b_adapt=2 / b_bias=0 / direct=3 / weightb=1 / open_gop=0 / weightp=2 / keyint=250 / keyint_min=23 / scenecut=40 / intra_refresh=0 / rc_lookahead=50 / rc=abr / mbtree=1 / bitrate=1100 / ratetol=1.0 / qcomp=0.60 / qpmin=0 / qpmax=69 / qpstep=4 / ip_ratio=1.40 / aq=1:1.00
Language                                 : English

Audio
ID                                       : 2
Format                                   : AAC
Format/Info                              : Advanced Audio Codec
Format profile                           : LC
Codec ID                                 : 40
Duration                                 : 1 h 34 min
Duration_LastFrame                       : -11 ms
Bit rate mode                            : Constant
Bit rate                                 : 128 kb/s
Channel(s)                               : 2 channels
Channel positions                        : Front: L R
Sampling rate                            : 48.0 kHz
Frame rate                               : 46.875 FPS (1024 spf)
Compression mode                         : Lossy
Stream size                              : 86.8 MiB (11%)
Title                                    : Little.Evil.2017.WEBRip.x264-FGT
Language                                 : English
Default                                  : Yes
Alternate group                          : 1

Subtitulos

Grupo: STRiFE
Versión: WEBRip x264 720p AC3
Tamaño: 1.8 GB
Little.Evil.2017.720p.WEBRip.x264-STRiFE

Duration                                 : 1h 34mn
Bit rate                                 : 2 414 Kbps
Width                                    : 1 280 pixels
Height                                   : 534 pixels
Display aspect ratio                     : 2.40:1
Frame rate mode                          : Constant
Frame rate                               : 23.976 (24000/1001) fps

Subtitulos

Grupo: STRiFE
Versión: WEBRip x264 1080p AC3
Tamaño: 4.4 GB
Little.Evil.2017.1080p.WEBRip.x264-STRiFE

Codec ID                                 : V_MPEG4/ISO/AVC
Duration                                 : 1h 34mn
Bit rate                                 : 6 249 Kbps
Width                                    : 1 920 pixels
Height                                   : 800 pixels
Display aspect ratio                     : 2.40:1
Frame rate mode                          : Constant
Frame rate                               : 23.976 (24000/1001) fps

Subtitulos

Trailer